<?xml version="1.0" standalone="no"?>
<!DOCTYPE svg PUBLIC "-//W3C//DTD SVG 1.1//EN" "http://www.w3.org/Graphics/SVG/1.1/DTD/svg11.dtd" >
<svg xmlns="http://www.w3.org/2000/svg">
<metadata>Generated by IcoMoon</metadata>
<defs>
<font id="icomoon" horiz-adv-x="1024">
<font-face units-per-em="1024" ascent="960" descent="-64" />
<missing-glyph horiz-adv-x="1024" />
<glyph unicode="&#x20;" horiz-adv-x="512" d="" />
<glyph unicode="&#xe900;" glyph-name="LOG-OUT-322" d="M939.971 448.224c0-4.694-0.854-8.534-2.56-12.374s-3.84-7.254-6.826-10.24l-140.8-140.8c-6.4-6.4-14.509-9.386-22.614-9.386-8.534 0-16.64 2.986-22.614 9.386-12.8 12.374-12.8 32.854 0 45.226l85.76 86.189h-498.771c-17.495 0-32.001 14.080-32.001 32s14.507 32 32.001 32h498.771l-85.76 86.186c-12.8 12.374-12.8 32.426 0 45.226 12.374 12.374 32.429 12.374 45.229 0l140.8-140.8c2.986-2.986 5.12-6.4 6.826-10.24s2.56-8.106 2.56-12.371zM509.904 21.994c-30.72 0-61.44 3.411-91.306 9.811-93.014 20.48-177.494 72.534-237.654 145.92-60.587 74.24-95.147 167.254-96.853 262.4-1.707 95.149 29.013 189.44 86.613 265.388s139.947 130.987 232.105 154.88c92.16 23.893 191.149 16.213 278.189-22.187 38.4-16.64 73.811-39.253 105.811-66.133 13.229-11.52 14.934-31.573 3.414-45.227s-31.574-14.933-45.226-3.413c-26.88 23.040-57.174 42.24-90.029 56.32-74.24 32.427-158.291 39.253-236.371 18.773-78.509-20.48-148.481-66.987-197.121-131.84s-75.093-144.641-73.387-225.707c1.707-81.066 30.72-160 81.92-222.72s122.879-106.666 202.239-124.16c78.934-17.494 162.56-7.68 235.52 27.734 28.16 13.651 54.189 30.72 77.654 50.771 13.226 11.52 33.706 9.814 45.226-3.411 11.52-13.229 9.814-33.709-3.411-45.229-27.734-23.466-58.454-43.946-91.309-59.731-58.026-28.16-122.026-42.24-186.026-42.24z" />
<glyph unicode="&#xe901;" glyph-name="time-stopwatch1" d="M832.003 502.080c-15.562 37.878-37.779 72.669-65.6 102.72l22.72 23.040c6.864-2.554 14.397-2.675 21.341-0.342s12.877 6.976 16.81 13.155c3.93 6.179 5.626 13.521 4.797 20.798s-4.128 14.051-9.347 19.188l-12.48 12.48-12.48 12.8c-2.976 2.999-6.515 5.38-10.416 7.004-3.898 1.625-8.080 2.461-12.304 2.461-4.227 0-8.41-0.836-12.307-2.461-3.901-1.625-7.44-4.005-10.413-7.004-4.637-4.167-7.952-9.597-9.546-15.623-1.59-6.026-1.389-12.385 0.586-18.297l-25.28-25.28c-50.749 38.080-110.95 61.541-174.080 67.84v96h46.4c8.486 0 16.624 3.371 22.627 9.372 6 6.001 9.373 14.14 9.373 22.628s-3.373 16.626-9.373 22.627c-6.003 6.001-14.141 9.373-22.627 9.373h-156.8c-8.49 0-16.627-3.372-22.63-9.373-6-6.001-9.37-14.14-9.37-22.627s3.37-16.626 9.37-22.628c6.003-6.001 14.141-9.372 22.63-9.372h46.4v-96c-80.33-7.633-155.475-43.056-212.481-100.159-32.331-32.099-57.996-70.269-75.52-112.32-34.992-85.078-34.992-180.525 0-265.6 17.334-42 42.78-80.166 74.88-112.32 64.987-65.075 153.153-101.677 245.121-101.76 91.741 0.253 179.648 36.842 244.48 101.76 32.33 32.096 57.994 70.266 75.52 112.32 34.992 85.075 34.992 180.522 0 265.6zM772.803 261.12c-14.157-34.326-34.925-65.53-61.12-91.84-26.035-26.314-57.034-47.197-91.2-61.44-69.075-28.483-146.608-28.483-215.68 0-34.166 14.243-65.168 35.126-91.201 61.44-39.431 39.619-66.27 90.010-77.145 144.838s-5.3 111.651 16.025 163.322c28.548 69.197 83.304 124.298 152.321 153.28 69.050 28.586 146.627 28.586 215.68 0 34.166-14.243 65.165-35.126 91.2-61.44 39.43-39.622 66.269-90.013 77.142-144.842 10.877-54.829 5.299-111.651-16.022-163.318zM625.6 471.037c7.366-4.992 16.061-7.664 24.963-7.664 8.899 0 17.594 2.672 24.96 7.664 7.597 4.723 13.443 11.805 16.64 20.16 3.562 8.154 4.458 17.226 2.56 25.92-1.626 8.736-5.869 16.771-12.16 23.040-4.131 4.336-9.152 7.722-14.72 9.92-5.475 2.288-11.35 3.466-17.28 3.466-5.933 0-11.808-1.178-17.28-3.466-6.73-2.771-12.688-7.126-17.37-12.701-4.682-5.571-7.946-12.192-9.51-19.299-1.747-8.595-0.854-17.52 2.56-25.6 2.902-8.854 8.781-16.432 16.637-21.44zM682.474 333.491c7.366-4.995 16.061-7.664 24.96-7.664s17.594 2.669 24.96 7.664c7.6 4.72 13.443 11.802 16.64 20.16 3.562 8.154 4.458 17.226 2.56 25.92-1.626 8.733-5.866 16.768-12.16 23.040-4.131 4.333-9.152 7.718-14.72 9.92-5.475 2.288-11.347 3.466-17.28 3.466s-11.808-1.178-17.28-3.466c-6.73-2.771-12.688-7.13-17.37-12.701s-7.942-12.195-9.51-19.299c-1.747-8.598-0.854-17.52 2.56-25.6 2.902-8.854 8.781-16.432 16.64-21.44zM628.074 192.694c7.366-4.995 16.061-7.664 24.96-7.664s17.594 2.669 24.96 7.664c7.6 4.72 13.443 11.802 16.64 20.16 3.562 8.154 4.458 17.226 2.56 25.92-1.626 8.733-5.866 16.768-12.16 23.040-4.131 4.333-9.152 7.718-14.72 9.92-5.475 2.288-11.347 3.466-17.28 3.466s-11.808-1.178-17.28-3.466c-6.73-2.771-12.688-7.13-17.37-12.701-4.678-5.571-7.942-12.195-9.51-19.299-1.747-8.598-0.854-17.52 2.56-25.6 2.902-8.854 8.781-16.432 16.64-21.44zM487.274 135.091c7.366-4.992 16.061-7.664 24.96-7.664s17.594 2.672 24.96 7.664c7.6 4.723 13.443 11.805 16.64 20.16 3.562 8.157 4.458 17.226 2.56 25.92-1.626 8.736-5.866 16.771-12.16 23.040-4.131 4.336-9.152 7.722-14.72 9.92-5.475 2.288-11.347 3.469-17.28 3.469s-11.808-1.181-17.28-3.469c-6.73-2.771-12.688-7.126-17.37-12.701-4.682-5.571-7.942-12.192-9.51-19.299-1.747-8.595-0.854-17.52 2.56-25.6 2.902-8.854 8.781-16.429 16.64-21.44zM349.674 192.694c7.366-4.995 16.061-7.664 24.96-7.664s17.594 2.669 24.96 7.664c7.6 4.72 13.443 11.802 16.64 20.16 3.562 8.154 4.458 17.226 2.56 25.92-1.626 8.733-5.866 16.768-12.16 23.040-4.131 4.333-9.152 7.718-14.72 9.92-5.475 2.288-11.347 3.466-17.28 3.466s-11.808-1.178-17.28-3.466c-6.73-2.771-12.688-7.13-17.37-12.701-4.678-5.571-7.942-12.195-9.51-19.299-1.747-8.598-0.854-17.52 2.56-25.6 2.902-8.854 8.781-16.432 16.64-21.44zM292.073 331.891c7.366-4.992 16.061-7.664 24.96-7.664s17.594 2.672 24.961 7.664c7.6 4.723 13.443 11.805 16.64 20.16 3.562 8.157 4.458 17.226 2.56 25.92-1.626 8.736-5.866 16.771-12.16 23.040-4.131 4.336-9.152 7.722-14.72 9.92-5.475 2.288-11.347 3.469-17.281 3.469s-11.806-1.181-17.28-3.469c-6.729-2.771-12.688-7.126-17.368-12.701-4.681-5.571-7.944-12.192-9.512-19.299-1.746-8.595-0.854-17.52 2.56-25.6 2.902-8.854 8.782-16.429 16.64-21.44zM349.674 471.091c7.366-4.992 16.061-7.664 24.96-7.664s17.594 2.672 24.96 7.664c7.6 4.723 13.443 11.805 16.64 20.16 3.562 8.157 4.458 17.226 2.56 25.92-1.626 8.736-5.866 16.771-12.16 23.040-4.131 4.336-9.152 7.722-14.72 9.92-5.475 2.288-11.347 3.469-17.28 3.469s-11.808-1.181-17.28-3.469c-6.73-2.771-12.688-7.126-17.37-12.701-4.678-5.571-7.942-12.192-9.51-19.299-1.747-8.595-0.854-17.52 2.56-25.6 2.902-8.854 8.781-16.429 16.64-21.44zM487.274 528.691c7.366-4.992 16.061-7.664 24.96-7.664s17.594 2.672 24.96 7.664c7.6 4.723 13.443 11.805 16.64 20.16 3.562 8.157 4.458 17.226 2.56 25.92-1.626 8.736-5.866 16.771-12.16 23.040-4.131 4.336-9.152 7.722-14.72 9.92-5.475 2.288-11.347 3.469-17.28 3.469s-11.808-1.181-17.28-3.469c-6.73-2.771-12.688-7.126-17.37-12.701-4.682-5.571-7.942-12.192-9.51-19.299-1.747-8.595-0.854-17.52 2.56-25.6 2.902-8.854 8.781-16.429 16.64-21.44z" />
<glyph unicode="&#xe902;" glyph-name="performance-money-increase1" d="M160 439.36c7.218 0.042 14.21 2.522 19.84 7.040l207.68 164.8c2.493 1.869 5.523 2.88 8.64 2.88s6.147-1.011 8.64-2.88l103.040-73.28c15.158-10.995 33.754-16.202 52.419-14.675s36.17 9.683 49.341 22.995l175.36 175.36v-110.72c0-8.486 3.373-16.627 9.373-22.627s14.141-9.373 22.627-9.373c8.486 0 16.627 3.373 22.627 9.373s9.373 14.141 9.373 22.627v189.12c0.051 4.16-0.71 8.291-2.24 12.16-3.248 7.819-9.462 14.033-17.28 17.28-3.968 1.612-8.198 2.48-12.48 2.56h-187.52c-8.486 0-16.627-3.372-22.627-9.372s-9.373-14.14-9.373-22.628c0-8.487 3.373-16.626 9.373-22.628s14.141-9.372 22.627-9.372h110.4l-175.36-175.36c-2.47-2.541-5.757-4.125-9.28-4.48-3.523-0.074-6.986 0.931-9.92 2.88l-103.68 73.92c-14.339 9.64-31.376 14.46-48.64 13.76-16.88-0.892-33.030-7.173-46.080-17.92l-206.72-164.16c-3.311-2.618-6.071-5.866-8.122-9.552-2.051-3.69-3.352-7.747-3.828-11.942s-0.117-8.442 1.055-12.496c1.172-4.054 3.135-7.837 5.775-11.13 2.98-3.773 6.772-6.822 11.092-8.928s9.061-3.21 13.868-3.232zM896 369.92v78.080c0 14.682-5.834 28.765-16.214 39.146s-24.464 16.214-39.146 16.214h-234.88c-14.682 0-28.765-5.834-39.146-16.214s-16.214-24.464-16.214-39.146v-70.4c-13.059-2.051-24.966-8.682-33.584-18.707s-13.389-22.794-13.456-36.013v-78.4c-0.154-2.557-0.154-5.123 0-7.68-8.589 8.637-19.888 14.061-32 15.36v70.72c-0.083 14.656-5.942 28.688-16.307 39.053s-24.397 16.224-39.053 16.307h-232.64c-14.656-0.083-28.689-5.942-39.052-16.307s-16.224-24.397-16.308-39.053v-78.4c0.079-13.184 4.86-25.907 13.484-35.878s20.522-16.541 33.556-18.522v-70.72c0-14.682 5.833-28.765 16.215-39.146s24.463-16.214 39.145-16.214h234.56c14.71 0 28.826 5.821 39.258 16.195 10.435 10.371 16.339 24.454 16.422 39.165v78.4c0.154 2.557 0.154 5.123 0 7.68 8.771-8.378 19.978-13.757 32-15.36v-70.72c0.067-14.278 5.616-27.987 15.504-38.288 9.885-10.304 23.354-16.416 37.616-17.072h234.88c14.656 0.083 28.688 5.942 39.053 16.307s16.224 24.397 16.307 39.053v78.4c-0.080 13.184-4.861 25.907-13.485 35.878-8.621 9.971-20.522 16.541-33.555 18.522v64c12.928 1.962 24.742 8.438 33.35 18.278 8.611 9.84 13.459 22.41 13.69 35.482zM567.36 253.12v61.12h217.6v-61.12h-217.6zM614.4 439.36h217.6v-61.12h-217.6v61.12zM192 314.24h217.6v-61.12h-217.6v61.12zM456.64 128h-217.6v61.12h217.6v-61.12zM832 128h-217.6v61.12h217.6v-61.12z" />
<glyph unicode="&#xe903;" glyph-name="printer" d="M857.6 665.6h-73.6v128c0 44.8-38.4 83.2-86.4 83.2h-371.2c-44.8 0-83.2-38.4-83.2-83.2v-128h-73.6c-48 0-86.4-38.4-86.4-86.4v-265.6c0-44.8 38.4-83.2 86.4-83.2h73.6v-179.2c0-19.2 12.8-32 32-32h476.8c16 0 32 12.8 32 32v179.2h73.6c48 0 86.4 38.4 86.4 86.4v265.6c0 44.8-38.4 83.2-86.4 83.2zM307.2 790.4c0 12.8 9.6 22.4 19.2 25.6h371.2c12.8 0 22.4-9.6 22.4-22.4v-128h-412.8v124.8zM720 83.2h-412.8v307.2h412.8v-307.2zM880 316.8c0-12.8-9.6-22.4-22.4-22.4h-73.6v128c0 19.2-12.8 32-32 32h-476.8c-19.2 0-32-12.8-32-32v-131.2h-73.6c-12.8 0-22.4 9.6-22.4 22.4v265.6c0 12.8 9.6 22.4 22.4 22.4h688c12.8 0 22.4-9.6 22.4-22.4v-262.4zM275.2 560h-54.4c-19.2 0-32-12.8-32-32s12.8-32 32-32h54.4c16 0 32 12.8 32 32s-12.8 32-32 32zM646.4 345.6h-265.6c-19.2 0-32-12.8-32-32s12.8-32 32-32h265.6c16 0 32 12.8 32 32s-12.8 32-32 32zM566.4 240h-185.6c-19.2 0-32-12.8-32-32s12.8-32 32-32h185.6c16 0 32 12.8 32 32s-12.8 32-32 32z" />
<glyph unicode="&#xe904;" glyph-name="car-repair-tow-truck1" d="M794.454 367.875l-75.094 145.069c-12.374 25.6-38.4 41.386-66.56 41.386h-88.746c-40.96 0-74.669-33.28-74.669-74.666v-19.629l-250.026 357.975c-7.68 11.52-22.187 16.64-35.84 12.373-13.227-4.267-22.187-16.64-22.187-30.293v-134.4c0-17.92 14.507-32 32-32s32 14.080 32 32v32.427l226.987-324.693h-248.32c-52.907 0-96-43.094-96-96v-72.534c0-52.906 43.093-96 96-96h42.24c14.507-26.454 42.667-44.8 75.094-44.8 32.426 0 60.586 18.346 75.091 44.8h233.814c14.506-26.454 42.666-44.8 75.094-44.8 32.426 0 60.586 18.346 75.091 44.8h20.909c41.386 0 74.666 33.28 74.666 74.666v51.2c0 63.574-42.666 116.909-101.546 133.12zM553.386 479.664c0 5.971 4.694 10.666 10.669 10.666h88.746c3.84 0 7.68-2.134 9.814-6.4l57.6-110.506h-166.829v106.24zM341.334 128.090c-11.949 0-21.334 9.386-21.334 21.334 0 11.946 9.386 21.331 21.334 21.331 11.946 0 21.331-9.386 21.331-21.331 0-11.949-9.386-21.334-21.331-21.334zM725.334 128.090c-11.949 0-21.334 9.386-21.334 21.334 0 11.946 9.386 21.331 21.334 21.331 11.946 0 21.331-9.386 21.331-21.331 0-11.949-9.386-21.334-21.331-21.334zM821.334 172.89h-14.080c-10.24 35.84-43.094 61.866-81.92 61.866-38.829 0-71.68-26.026-81.92-61.866h-220.16c-10.24 35.84-43.094 61.866-81.92 61.866-38.828 0-71.681-26.026-81.921-61.866h-35.413c-17.493 0-32 14.506-32 32v72.534c0 17.491 14.507 32 32 32h533.334c41.386 0 74.666-33.28 74.666-74.669v-51.2c0-5.971-4.694-10.666-10.666-10.666zM245.333 556.022v11.52c0 17.92-14.507 32-32 32s-32-14.080-32-32v-37.549c0-17.491 14.507-32 32-32 11.947 0 21.333-9.386 21.333-21.331 0-11.949-9.387-21.334-21.333-21.334s-21.333 9.814-21.333 21.334c0 17.92-14.507 32-32 32s-32-14.080-32-32c0-46.934 38.4-85.334 85.333-85.334s85.333 38.4 85.333 85.334c0 35.84-22.187 66.56-53.333 79.36z" />
<glyph unicode="&#xe905;" glyph-name="cog-hand-give1" d="M390.947 355.562l92.381-0.269c0.544 0 1.091 0.010 1.638 0.038 4.032 0.195 8.064-0.451 11.837-1.894 3.77-1.446 7.2-3.658 10.074-6.496 2.87-2.842 5.123-6.246 6.608-10.003 1.488-3.754 2.179-7.776 2.029-11.814l-0.016-0.624c-0.125-7.203-2.874-14.112-7.728-19.434-4.531-4.97-10.611-8.234-17.222-9.286h-114.554c-17.674 0-32-14.326-32-32s14.326-32 32-32h116.621c1.165 0 2.326 0.064 3.485 0.192 13.267 1.453 25.958 5.712 37.28 12.378 1.37 0.627 2.714 1.357 4.019 2.195l143.6 92.253c7.568 4.899 16.774 6.592 25.594 4.704 8.816-1.888 16.525-7.2 21.424-14.771 4.899-7.568 6.592-16.778 4.704-25.594-1.888-8.819-7.2-16.525-14.771-21.424l-190.902-123.578c-0.691-0.445-1.379-0.886-2.067-1.328-18.707-12.006-35.715-22.922-53.091-30.736-17.68-7.949-33.283-11.488-48.042-9.93-0.333 0.035-0.666 0.064-1.002 0.090l-196.382 14.522-36.61 127.974 108.603 70.3c27.49 17.882 59.704 27.123 92.491 26.534zM576.944 348.019c-1.021 4.237-2.339 8.41-3.952 12.48-4.752 11.997-11.942 22.877-21.117 31.949-9.178 9.075-20.138 16.141-32.186 20.755-11.77 4.506-24.326 6.579-36.912 6.093l-90.931 0.259c-45.469 0.768-90.13-12.067-128.257-36.858l-92.14-59.645-4.699 16.426c-4.861 16.992-22.576 26.826-39.567 21.965s-26.825-22.576-21.964-39.568l79.345-277.354c4.861-16.992 22.576-26.826 39.567-21.965s26.825 22.576 21.964 39.568l-0.877 3.066 172.443-12.752c29.802-3.021 57.011 4.714 80.474 15.264 21.859 9.827 42.55 23.123 60.195 34.461 1.12 0.72 2.23 1.43 3.325 2.134l0.112 0.070 190.963 123.619c21.818 14.122 37.133 36.336 42.573 61.75 5.44 25.418 0.563 51.952-13.562 73.77-14.122 21.821-36.336 37.136-61.75 42.576-25.395 5.437-51.91 0.57-73.718-13.526l-0.054-0.035-69.274-44.502zM623.715 535.712c-23.040 0-45.229 8.96-61.44 25.6-16.214 16.64-25.6 38.4-25.6 61.44 0 23.038 9.386 45.225 25.6 61.438 32.426 32.427 90.451 32.427 122.88 0 16.211-16.213 25.6-38.4 25.6-61.438 0-23.040-8.96-44.8-25.6-61.44-16.214-16.214-38.829-25.6-61.44-25.6zM623.715 645.79c-5.974 0-11.949-2.56-16.214-6.827-4.266-4.266-6.826-10.24-6.826-16.211 0-5.974 2.56-11.949 6.826-16.214 8.534-8.534 23.894-8.534 32.426 0 4.269 4.266 6.829 10.24 6.829 16.214 0 5.971-2.56 11.946-6.829 16.211-4.266 4.267-10.24 6.827-16.211 6.827zM668.106 426.054c0 0-2.989 0-4.694 0-17.494 2.56-29.866 18.771-27.306 36.266l3.84 27.306c1.706 11.949 9.811 21.76 21.331 25.6 13.229 4.694 25.6 11.52 36.269 20.909 8.96 7.68 21.76 9.811 32.851 5.546l46.509-19.2 6.4 2.134 4.691 8.531-1.28 5.974-39.68 31.146c-9.386 7.254-14.080 19.629-11.52 31.574 2.989 13.654 2.989 27.734 0 41.813-2.56 11.947 2.134 23.893 11.52 31.573l39.68 31.147 0.854 5.973-4.694 8.533-5.546 2.133-47.36-19.2c-11.094-4.267-23.894-2.56-32.854 5.547-10.666 9.387-23.040 16.213-36.266 20.907-11.094 3.84-19.2 13.653-20.906 25.6l-7.254 50.773-4.694 4.267h-9.811l-4.269-3.84-7.251-50.773c-1.709-11.947-9.814-21.76-20.909-25.6-13.226-4.693-25.6-11.52-36.266-20.907-8.96-7.68-21.76-9.813-32.854-5.547l-45.651 18.773-7.68-1.707-4.694-8.533 1.28-5.973 40.106-31.147c9.389-7.68 14.080-19.627 11.52-31.573-2.986-13.654-2.986-27.734 0-41.814 2.56-11.946-2.131-23.891-11.52-31.571l-39.68-31.149c-14.080-11.091-34.131-8.531-44.8 5.549-11.091 14.080-8.531 34.131 5.549 44.8l25.6 20.051c-0.854 8.96-0.854 17.92 0 26.88l-25.6 20.054c-12.8 10.24-21.76 24.747-25.174 40.96-2.986 16.213 0 32.853 8.106 47.36l4.694 8.533c8.106 14.080 21.334 25.173 37.12 30.293 15.786 5.547 32.426 5.12 47.786-1.28l30.72-12.373c7.254 4.693 14.509 9.387 22.614 12.8l4.694 32.853c2.131 16.213 10.666 31.147 23.040 41.813 12.371 10.667 28.16 16.64 44.8 17.067h9.811c16.64 0 32.429-5.973 44.8-16.64 12.374-11.093 20.909-26.027 23.040-42.24l4.694-32.427c7.68-3.84 15.36-8.107 22.614-12.8l30.72 12.373c15.36 6.4 32.426 6.4 47.786 1.28 15.786-5.547 29.014-16.213 37.12-30.72l4.694-8.107c8.106-14.507 11.091-31.147 8.106-47.36s-11.946-30.72-24.746-40.96l-25.6-20.052c0.851-8.96 0.851-17.92 0-26.88l25.171-20.054c12.8-10.24 21.76-24.746 25.174-40.96 2.986-16.214 0-33.28-8.106-47.36l-4.694-8.534c-8.106-14.080-21.334-25.171-37.12-30.291-15.786-5.549-32.854-5.12-47.786 1.28l-30.72 12.371c-7.254-4.691-14.509-9.386-22.614-12.8l-1.28-8.96c-2.134-15.786-16.64-29.011-32.426-29.011z" />
<glyph unicode="&#xe906;" glyph-name="synchronize-arrows-1" d="M275.2 400c-19.2 0-32-12.8-32-32v-76.8c-70.4 124.8-51.2 281.6 54.4 380.8 89.6 86.4 220.8 108.8 332.8 64 16-9.6 35.2 0 41.6 16 9.6 16 0 35.2-16 41.6-137.6 57.6-294.4 28.8-403.2-76.8-134.4-124.8-153.6-326.4-54.4-476.8h-83.2c-19.2 0-32-12.8-32-32s12.8-32 32-32h160c16 0 32 16 32 32v160c0 19.2-12.8 32-32 32zM908.8 716.8h-150.4c0 0 0 0 0 0h-9.6c-19.2 0-32-12.8-32-32v-160c0-19.2 12.8-32 32-32s32 16 32 32v76.8c28.8-51.2 48-105.6 44.8-163.2-3.2-83.2-35.2-160-96-217.6-89.6-86.4-220.8-112-336-64-16 9.6-35.2 0-41.6-16-9.6-16 0-35.2 16-41.6 44.8-19.2 96-28.8 144-28.8 96 0 188.8 35.2 259.2 105.6 73.6 67.2 112 163.2 115.2 262.4 0 80-22.4 150.4-64 214.4h86.4c19.2 0 32 12.8 32 32s-12.8 32-32 32z" />
<glyph unicode="&#xe907;" glyph-name="shipment-upload" d="M484.482 817.98c7.751 3.249 16.49 3.217 24.216-0.088l341.129-145.853c11.435-4.889 18.854-16.127 18.851-28.564l-0.009-388.049c0-12.356-7.32-23.536-18.646-28.477l-341.125-148.762c-7.919-3.451-16.918-3.451-24.837 0l-341.125 148.762c-11.325 4.94-18.647 16.12-18.647 28.477l0.009 388.049c0 12.356 7.322 23.536 18.647 28.475l170.975 74.56 170.564 71.469zM404.942 717.287l262.11-114.304 92.203 40.209-262.892 112.404-91.421-38.309zM806.549 596.039l-278.997-121.67-0.009-320.27 279 121.67 0.006 320.27zM465.414 154.1l0.009 320.27-278.999 121.67-0.007-320.27 278.997-121.67zM233.073 643.475l263.415-114.871 92.849 40.491-263.413 114.872-92.85-40.492z" />
<glyph unicode="&#xe908;" glyph-name="phone-incoming-call" d="M786.598 421.098c1.027-0.131 2.048-0.314 3.056-0.544 42.294-9.648 79.946-33.776 106.838-68.195 27.558-35.274 41.446-84.429 41.443-127.101v-31.997c0-22.522-8.704-44.285-24.458-60.461-15.782-16.205-37.373-25.469-60.067-25.469h-131.312c-22.694 0-44.282 9.264-60.064 25.469-15.754 16.176-24.461 37.939-24.461 60.461 0 6.083-2.362 11.754-6.307 15.805-3.917 4.022-9.050 6.122-14.218 6.122h-210.099c-5.168 0-10.301-2.099-14.218-6.122-3.946-4.051-6.307-9.722-6.307-15.805 0-22.522-8.707-44.285-24.461-60.461-15.782-16.205-37.37-25.469-60.065-25.469h-131.313c-22.694 0-44.282 9.264-60.065 25.469-15.755 16.176-24.46 37.939-24.46 60.461v31.987c-0.024 42.691 13.851 91.875 41.405 127.168 26.894 34.445 64.562 58.595 106.876 68.246 1.014 0.23 2.037 0.413 3.067 0.544 181.408 35.757 367.795 35.722 549.187-0.109zM775.914 357.971c-174.326 34.666-353.501 34.701-527.838 0.106-0.409-0.083-0.819-0.154-1.23-0.221-27.029-6.582-51.328-22.278-68.932-44.826-17.315-22.179-27.871-56.79-27.851-87.75v-32.019c0-6.086 2.362-11.757 6.308-15.808 3.918-4.022 9.050-6.122 14.217-6.122h131.313c5.167 0 10.299 2.099 14.217 6.122 3.947 4.051 6.308 9.722 6.308 15.808 0 22.518 8.704 44.285 24.461 60.458 15.782 16.205 37.37 25.469 60.064 25.469h210.099c22.694 0 44.282-9.264 60.064-25.469 15.757-16.173 24.461-37.939 24.461-60.458 0-6.086 2.362-11.757 6.307-15.808 3.92-4.022 9.053-6.122 14.218-6.122h131.312c5.168 0 10.301 2.099 14.218 6.122 3.946 4.051 6.307 9.722 6.307 15.808v31.997c0.003 30.95-10.563 65.539-27.875 87.696-17.603 22.531-41.891 38.218-68.906 44.797-0.416 0.064-0.829 0.138-1.242 0.221zM512 783.227c17.674 0 32-14.327 32-32v-183.838c0-17.674-14.326-32-32-32s-32 14.326-32 32v183.838c0 17.673 14.326 32 32 32zM232.911 726.146c15.155 9.093 34.811 4.179 43.904-10.976l78.788-131.314c9.091-15.152 4.179-34.81-10.976-43.904-15.155-9.091-34.812-4.176-43.905 10.976l-78.787 131.314c-9.093 15.155-4.179 34.811 10.976 43.904zM791.085 726.146c15.155-9.093 20.067-28.749 10.976-43.904l-78.787-131.314c-9.094-15.152-28.749-20.067-43.904-10.976-15.155 9.094-20.067 28.752-10.976 43.904l78.787 131.314c9.094 15.155 28.749 20.069 43.904 10.976z" />
<glyph unicode="&#xe909;" glyph-name="phone-actions-call" d="M757.632 221.446c-4.266 9.389-9.814 17.92-17.066 25.174l-82.774 82.774c-7.254 7.251-15.786 13.226-25.6 17.066-19.2 8.106-40.96 8.106-60.16 0-9.814-3.84-18.346-9.814-25.6-17.066-5.546-5.549-15.36-5.549-20.906 0l-132.269 132.266c-2.56 2.986-4.266 6.4-4.266 10.24 0 4.266 1.706 8.106 4.266 10.666 7.254 7.254 13.229 15.789 17.069 25.6 4.266 9.389 5.971 19.629 5.971 29.869s-1.706 20.906-5.971 30.291c-3.84 9.814-9.814 18.349-17.069 25.6l-82.772 82.775c-29.44 29.44-81.493 29.44-111.36 0l-19.627-19.627c-27.307-27.734-45.227-64.428-49.067-103.254-4.267-38.826 4.693-78.080 26.453-112.214 93.44-138.24 210.346-255.146 348.586-348.586 0.426-0.426 0.854-0.426 0.854-0.854 28.16-17.491 60.16-26.88 93.011-26.88 5.974 0 12.374 0 18.349 0.854 38.826 4.266 75.52 22.186 103.251 49.494l19.629 19.626c7.251 7.254 12.8 16.214 17.066 25.6 3.84 9.814 5.974 20.054 5.974 30.294s-2.134 20.48-5.974 30.291zM698.326 185.606c0 0-1.709-3.411-2.989-5.12l-19.626-19.626c-17.494-17.066-40.534-28.16-64.854-31.146-3.84 0-7.251 0-11.091 0-20.48 0-40.96 5.546-57.6 16.211-0.429 0-0.429 0.429-0.854 0.429-131.414 88.746-242.773 200.106-331.093 331.091-13.227 20.48-19.2 45.654-16.213 69.974 2.56 24.32 13.653 47.36 30.72 64.854l19.627 19.626c2.987 2.56 6.827 4.266 10.667 4.266s7.68-1.706 10.24-4.266l82.773-82.774c0 0 2.56-2.986 3.414-4.691 0.426-2.134 0.851-3.84 0.851-5.974 0-1.706-0.426-3.84-0.851-5.546-0.854-1.709-2.134-3.414-3.414-4.694-14.934-14.934-23.040-34.56-23.040-55.894 0-21.331 8.534-40.96 23.040-55.466l132.266-132.266c29.44-29.44 81.92-29.44 111.36 0 1.28 1.28 2.989 2.56 4.694 3.411 3.414 1.28 8.106 1.28 11.52 0 1.706-0.851 3.414-2.131 4.694-3.411l82.771-82.774c0 0 2.56-2.986 2.989-4.694 0.851-1.706 1.28-3.411 1.28-5.546s-0.429-3.84-1.28-5.546v-0.429zM894.608 798.719v-186.879c0-17.92-14.509-32-32-32-17.494 0-32 14.080-32 32v109.652l-249.174-249.172c-6.4-6.4-14.506-9.389-22.614-9.389-8.531 0-16.64 2.989-22.611 9.389-12.8 12.371-12.8 32.426 0 45.226l249.171 249.173h-110.080c-17.491 0-32 14.507-32 32s14.509 32 32 32h187.309c17.491 0 32-14.507 32-32z" />
<glyph unicode="&#xe90a;" glyph-name="design-tool-quill-3" d="M794.461 827.684c13.539 4.879 28.186 5.806 42.23 2.672 14.058-3.138 26.931-10.215 37.114-20.404 10.186-10.188 17.254-23.067 20.384-37.128 3.13-14.052 2.192-28.704-2.701-42.243-42.022-116.783-130.835-333.385-254.938-457.487-68.077-68.074-152.371-78.614-222.32-85.069-5.242-0.483-10.374-0.941-15.408-1.392-29.792-2.656-56.048-4.998-80.144-10.509-27.364-6.256-48.698-15.997-65.207-32.509-1.466-1.466-3.039-2.758-4.694-3.882l-66.15-66.147c-12.497-12.496-32.759-12.493-45.255 0.003s-12.496 32.758 0.001 45.254l515.686 515.654c12.496 12.496 32.758 12.496 45.254 0 12.496-12.499 12.496-32.758 0-45.258l-342.477-342.454c12.771 1.434 25.552 2.563 38.026 3.667 4.874 0.432 9.725 0.861 14.486 1.299 69.741 6.435 132.531 16.182 182.944 66.595 112.867 112.867 197.792 316.669 239.984 433.926l0.019 0.051c0.765 2.113 0.909 4.4 0.422 6.592-0.49 2.193-1.59 4.202-3.181 5.791-1.587 1.589-3.594 2.693-5.789 3.182-2.192 0.489-4.48 0.344-6.592-0.419l-0.042-0.015c-57.747-20.764-138.333-52.587-218.794-93.613-80.838-41.218-159.613-90.763-215.181-146.36l-0.23-0.23c-31.626-31.005-51.914-71.738-57.603-115.654-1.658-14.349-1.354-28.858 0.909-43.126 2.765-17.456-9.143-33.846-26.598-36.614-17.455-2.765-33.848 9.142-36.613 26.598-3.184 20.099-3.603 40.538-1.243 60.749l0.043 0.368c7.482 58.189 34.316 112.17 76.181 153.267 62.474 62.464 148.029 115.578 231.264 158.019 83.664 42.66 166.944 75.512 226.211 96.823zM371.715 127.808c-17.674 0-32-14.326-32-32s14.326-32 32-32h399.136c17.674 0 32 14.326 32 32s-14.326 32-32 32h-399.136z" />
<glyph unicode="&#xe90b;" glyph-name="office-file-pdf" d="M795.306 599.254c-3.84 9.386-9.389 17.92-17.069 25.6l-183.040 183.039c-7.251 7.253-16.211 13.227-25.6 17.067-9.811 3.84-19.626 5.973-30.291 5.973h-331.521c-20.907 0-40.96-8.533-55.893-23.040-14.507-14.507-23.040-34.987-23.040-55.893v-608c0-21.334 8.533-40.96 23.040-55.894 14.933-14.506 34.987-23.040 55.893-23.040h93.44c17.92 0 32.001 14.080 32.001 32s-14.081 32-32.001 32h-93.44c-3.84 0-7.68 1.709-10.24 4.269-2.987 2.986-4.693 6.4-4.693 10.666v608c0 4.267 1.707 8.107 4.267 10.667 2.987 2.56 6.827 4.267 10.667 4.267h295.681v-155.308c0-20.48 8.531-40.96 23.040-55.466 14.506-14.506 34.56-23.040 55.891-23.040h154.88v-108.374c0-17.92 14.509-32 32-32 17.494 0 32 14.080 32 32v144.214c0 10.666-1.706 20.48-5.971 30.294zM582.397 597.12c-4.266 0-7.68 1.28-10.666 4.266-2.56 2.56-4.266 6.4-4.266 10.24v133.548l148.051-148.053h-133.12zM490.666 333.014c-19.2 19.2-44.8 29.866-72.109 29.866h-23.466c-17.92 0-32-14.080-32-32v-233.814c0-17.92 14.080-32 32-32s32 14.080 32 32v61.869c23.894 1.706 46.506 12.371 63.574 29.44 19.626 19.626 29.866 45.226 29.866 72.531 0 27.309-10.666 53.334-29.866 72.109zM445.437 233.6c-5.12-5.12-11.52-8.534-18.346-9.814v73.814c6.826-1.28 13.226-4.694 18.346-9.814 7.254-7.251 11.094-17.066 11.094-26.88 0-9.811-3.84-20.051-11.094-27.306zM582.397 65.066c-17.491 0-32 14.509-32 32v233.814c0 17.494 14.509 32 32 32 33.709 0 65.28-13.226 88.749-36.694 23.466-23.466 36.691-55.466 36.691-88.746v-46.934c0-33.28-13.226-65.706-36.691-88.746-23.469-23.466-55.040-36.694-88.749-36.694zM614.397 289.92v-151.894c4.269 2.56 8.109 5.549 11.52 8.96 11.52 11.52 17.92 27.309 17.92 43.52v46.934c0 16.214-6.4 32-17.92 43.52-3.411 3.414-7.251 6.4-11.52 8.96zM801.277 284.374v-61.869h38.4c17.494 0 32-14.080 32-32s-14.506-32-32-32h-38.4v-61.44c0-17.92-14.080-32-32-32s-32 14.080-32 32v187.309c0 20.906 8.109 40.531 23.040 55.466 14.934 14.934 34.989 23.040 55.894 23.040h46.934c17.491 0 32-14.080 32-32s-14.509-32-32-32h-46.934c-3.84 0-7.68-1.28-10.666-4.266-2.56-2.56-4.269-6.4-4.269-10.24z" />
<glyph unicode="&#xe90c;" glyph-name="love-heart-hands-hold-1" d="M616.742 831.83c20.138 18.87 45.974 34.094 74.864 40.103 47.581 9.897 98.371-6.307 138.326-59.579l0.122-0.165c22.586-30.521 26.989-64.217 19.187-97.271-7.427-31.469-25.715-61.946-47.43-90.272-32.246-42.058-77.661-86.112-120.758-127.917-14.342-13.91-28.426-27.574-41.683-40.832-6-6-14.141-9.373-22.627-9.373s-16.627 3.373-22.627 9.373c-13.258 13.258-27.344 26.922-41.686 40.832-43.094 41.805-88.509 85.859-120.755 127.917-21.718 28.326-40.006 58.803-47.434 90.272-7.798 33.054-3.395 66.751 19.187 97.271l0.125 0.165c39.955 53.272 90.746 69.476 138.326 59.579 28.89-6.009 54.726-21.233 74.864-40.103zM454.816 774.041c-10.029-13.594-12.285-27.481-8.285-44.421 4.378-18.558 16.381-40.532 35.933-66.034 29.13-37.995 69.382-77.058 111.443-117.87 7.571-7.347 15.2-14.752 22.835-22.214 7.632 7.462 15.264 14.867 22.835 22.214 42.058 40.813 82.314 79.875 111.443 117.87 19.552 25.502 31.552 47.476 35.933 66.034 4 16.941 1.741 30.829-8.288 44.423-26.234 34.925-52.659 39.676-74.026 35.232-24.538-5.103-48.016-23.723-60.762-44.115-5.85-9.356-16.102-15.040-27.136-15.040s-21.29 5.684-27.136 15.040c-12.746 20.392-36.227 39.011-60.762 44.115-21.37 4.445-47.795-0.306-74.029-35.233zM390.957 355.571l92.378-0.269c0.547 0 1.091 0.013 1.638 0.038 4.035 0.195 8.064-0.451 11.837-1.894 3.773-1.446 7.203-3.658 10.074-6.496 2.874-2.842 5.123-6.246 6.611-10 1.485-3.757 2.176-7.779 2.029-11.818l-0.019-0.624c-0.125-7.203-2.874-14.112-7.728-19.434-4.531-4.97-10.608-8.234-17.222-9.286h-114.55c-17.674 0-32-14.326-32-32 0-17.67 14.326-32 32-32h116.618c1.165 0 2.33 0.064 3.488 0.192 13.267 1.453 25.955 5.715 37.277 12.378 1.373 0.627 2.714 1.357 4.019 2.195l143.6 92.253c7.571 4.899 16.778 6.592 25.594 4.704 8.819-1.888 16.525-7.2 21.424-14.771 4.902-7.568 6.595-16.774 4.707-25.594-1.888-8.816-7.203-16.525-14.771-21.424l-190.902-123.578c-0.691-0.445-1.382-0.886-2.070-1.328-18.704-12.006-35.712-22.922-53.091-30.733-17.677-7.952-33.283-11.491-48.042-9.933-0.333 0.035-0.666 0.064-0.998 0.090l-196.384 14.525-36.61 127.971 108.603 70.301c27.492 17.882 59.703 27.123 92.493 26.534zM576.95 348.029c-1.021 4.237-2.339 8.41-3.952 12.48-4.749 12-11.939 22.877-21.117 31.952-9.174 9.072-20.134 16.138-32.186 20.752-11.766 4.506-24.323 6.579-36.909 6.093l-90.934 0.262c-45.466 0.765-90.129-12.070-128.255-36.861l-92.14-59.645-4.7 16.426c-4.861 16.992-22.576 26.826-39.567 21.965s-26.825-22.576-21.964-39.568l79.345-277.354c4.861-16.989 22.576-26.826 39.567-21.962 16.992 4.861 26.825 22.573 21.964 39.565l-0.877 3.066 172.441-12.752c29.802-3.021 57.014 4.714 80.474 15.264 21.859 9.827 42.554 23.123 60.195 34.461 1.123 0.72 2.23 1.43 3.328 2.134l191.072 123.69c21.821 14.122 37.133 36.336 42.576 61.75 5.44 25.418 0.563 51.952-13.562 73.77-14.125 21.821-36.339 37.136-61.754 42.576-25.395 5.437-51.907 0.57-73.718-13.526l-0.051-0.035-69.277-44.502z" />
<glyph unicode="&#xe90d;" glyph-name="space-rocket-flying" d="M895.805 793.588c1.075 9.662-2.301 19.29-9.178 26.164-6.874 6.875-16.502 10.251-26.163 9.176l-73.155-8.136c-64.595-7.18-124.829-36.132-170.787-82.093l-192.605-192.604-23.811 7.93c-41.472 13.821-85.972 15.818-128.516 5.77-42.545-10.045-81.451-31.741-112.36-62.656l-7.864-7.866c-6.92-6.912-11.958-15.478-14.636-24.886-2.681-9.421-2.907-19.37-0.657-28.899s6.902-18.326 13.513-25.552c6.606-7.222 14.949-12.634 24.235-15.718l115.595-38.554 133.048-133.11 38.55-115.59c3.088-9.286 8.506-17.648 15.725-24.253 7.226-6.611 16.022-11.264 25.552-13.514 9.533-2.25 19.482-2.026 28.899 0.656 9.398 2.675 17.955 7.706 24.864 14.611l0.048 0.048 7.878 7.843c30.906 30.912 52.595 69.821 62.637 112.368 10.038 42.541 8.035 87.034-5.786 128.499l-7.92 23.802 192.662 192.621c45.974 45.949 74.931 106.197 82.096 170.801l8.134 73.142zM794.384 757.185l33.389 3.713-3.712-33.401c-5.562-50.154-28.045-96.922-63.738-132.592l-309.878-309.818-98.49 98.534 309.824 309.824c35.683 35.685 82.448 58.164 132.605 63.739zM286.299 497.51c28.701 6.778 58.626 6.026 86.885-2.125l-75.122-75.139-93.9 31.315 0.324 0.326c22.505 22.509 50.834 38.307 81.812 45.622zM518.374 137.261l-31.318 93.904 75.174 75.011c8.118-28.218 8.861-58.096 2.099-86.752-7.309-30.97-23.094-59.293-45.587-81.798l-0.368-0.365zM285.906 265.933c17.636 1.149 31 16.378 29.851 34.016-1.149 17.635-16.378 30.998-34.013 29.85-26.222-1.709-50.924-12.909-69.49-31.504-12.146-12.122-22.392-32.25-30.392-50.179-8.673-19.437-17.074-41.942-24.339-62.947-7.3-21.101-13.623-41.184-18.115-55.962-2.25-7.398-4.048-13.498-5.289-17.763-0.62-2.134-1.102-3.808-1.432-4.963l-0.378-1.331-0.139-0.49c-3.129-11.139-0.002-23.107 8.181-31.29 8.183-8.179 20.151-11.306 31.29-8.176l0.491 0.141 1.329 0.378c1.153 0.33 2.828 0.813 4.96 1.434 4.262 1.238 10.357 3.037 17.753 5.286 14.767 4.493 34.842 10.816 55.936 18.115 20.997 7.264 43.497 15.664 62.936 24.336 17.949 8.006 38.067 18.246 50.198 30.368 10.074 10.051 18.064 21.99 23.51 35.139 5.446 13.152 8.24 27.248 8.224 41.482-0.026 17.674-14.371 31.981-32.042 31.958-17.674-0.022-31.984-14.368-31.958-32.042 0.006-5.802-1.133-11.546-3.354-16.909-2.221-5.36-5.478-10.227-9.584-14.326l-0.029-0.029c-2.754-2.752-12.521-8.931-31.039-17.194-17.038-7.6-37.593-15.312-57.792-22.301-6.777-2.346-13.459-4.592-19.885-6.701 2.114 6.435 4.361 13.13 6.709 19.917 6.989 20.205 14.703 40.762 22.301 57.792 8.264 18.522 14.435 28.246 17.156 30.957l0.066 0.067c7.58 7.597 17.667 12.173 28.376 12.87z" />
<glyph unicode="&#xe90e;" glyph-name="single-neutral-profile-picture" d="M336.013 570.64c0 93.662 75.926 169.59 169.59 169.59 93.661 0 169.587-75.928 169.587-169.59 0-82.454-58.842-151.165-136.826-166.429 40.832-4.685 80.317-18.090 115.725-39.453 44.81-27.037 81.389-65.795 105.789-112.096 8.24-15.632 2.246-34.989-13.389-43.226-15.635-8.24-34.989-2.246-43.229 13.389-18.966 35.99-47.402 66.118-82.234 87.136-34.835 21.018-74.746 32.125-115.427 32.125s-80.592-11.107-115.424-32.125c-34.835-21.018-63.267-51.146-82.235-87.136-8.24-15.635-27.594-21.629-43.228-13.389-15.635 8.237-21.63 27.594-13.39 43.226 24.4 46.301 60.979 85.059 105.788 112.096 35.408 21.366 74.896 34.768 115.728 39.453-77.984 15.267-136.826 83.974-136.826 166.429zM505.603 676.23c-58.317 0-105.59-47.274-105.59-105.59s47.274-105.59 105.59-105.59c58.314 0 105.587 47.274 105.587 105.59s-47.274 105.59-105.587 105.59zM160 788.694c0 44.708 34.591 84.267 81.231 84.267h541.537c46.64 0 81.232-39.558 81.232-84.267v-679.466c0-44.71-34.592-84.269-81.232-84.269h-541.537c-46.639 0-81.231 39.558-81.231 84.269v679.466zM241.231 808.961c-7.739 0-17.231-7.243-17.231-20.267v-679.466c0-13.024 9.492-20.269 17.231-20.269h541.537c7.741 0 17.232 7.245 17.232 20.269v679.466c0 13.024-9.491 20.267-17.232 20.267h-541.537z" />
<glyph unicode="&#xe90f;" glyph-name="single-man-actions-edit-11" d="M257.31 784.817c30.205 30.206 71.173 47.175 113.89 47.175s83.683-16.969 113.891-47.175c30.205-30.205 47.174-71.173 47.174-113.89s-16.97-83.686-47.174-113.891c-16.419-16.419-36.019-28.928-57.35-36.925 12.586-3.053 24.966-7.126 37.021-12.208 49.44-20.845 90.576-57.494 116.963-104.211 8.691-15.389 3.261-34.909-12.128-43.6s-34.909-3.264-43.6 12.125c-19.424 34.39-49.702 61.37-86.096 76.714-36.397 15.344-76.851 18.186-115.034 8.080-38.182-10.102-71.937-32.582-95.979-63.92-24.042-31.334-37.015-69.76-36.887-109.254 0.057-17.674-14.223-32.048-31.896-32.106-17.673-0.054-32.046 14.224-32.103 31.898-0.173 53.654 17.45 105.853 50.11 148.422s78.515 73.107 130.384 86.832c1.88 0.496 3.764 0.973 5.651 1.424-21.133 8.003-40.549 20.442-56.836 36.73-30.206 30.205-47.175 71.174-47.175 113.891s16.969 83.684 47.175 113.89zM371.2 767.992c-25.744 0-50.432-10.227-68.636-28.43s-28.43-42.892-28.43-68.635c0-25.743 10.227-50.431 28.43-68.636 18.204-18.202 42.892-28.429 68.636-28.429s50.432 10.227 68.634 28.429c18.205 18.205 28.432 42.893 28.432 68.636s-10.227 50.432-28.432 68.635c-18.202 18.203-42.89 28.43-68.634 28.43zM867.2 335.584l-238.707-238.742c-4.467-4.467-10.16-7.514-16.355-8.752l-117.331-23.466c-10.49-2.099-21.338 1.184-28.902 8.752-7.565 7.565-10.851 18.41-8.752 28.902l23.466 117.331c1.242 6.195 4.285 11.885 8.752 16.352l238.73 238.762c18.416 18.41 43.395 28.758 69.437 28.758s51.014-10.342 69.43-28.755l0.346-0.349c0.186-0.192 0.368-0.384 0.547-0.579 8.819-8.973 15.834-19.562 20.656-31.187 4.941-11.917 7.485-24.688 7.485-37.587s-2.544-25.674-7.485-37.59c-4.941-11.91-12.189-22.739-21.315-31.85zM773.354 429.466l-231.878-231.907-12.15-60.765 60.762 12.154 231.878 231.91c3.174 3.168 5.715 6.954 7.434 11.098 1.718 4.141 2.602 8.582 2.602 13.069 0 4.483-0.883 8.925-2.602 13.069-1.718 4.141-4.237 7.904-7.411 11.075-0.15 0.15-0.301 0.301-0.448 0.454-0.093 0.096-0.186 0.195-0.278 0.291-6.365 6.131-14.867 9.568-23.725 9.568-9.069 0-17.77-3.606-24.182-10.016z" />
<glyph unicode="&#xe910;" glyph-name="notes-book-text" d="M347.706 550.4c-17.674 0-32-14.33-32-32 0-17.674 14.326-32 32-32h328.534c17.674 0 32 14.326 32 32 0 17.67-14.326 32-32 32h-328.534zM315.706 377.597c0 17.674 14.326 32 32 32h328.534c17.674 0 32-14.326 32-32s-14.326-32-32-32h-328.534c-17.674 0-32 14.326-32 32zM347.706 268.797c-17.674 0-32-14.326-32-32s14.326-32 32-32h164.269c17.674 0 32 14.326 32 32s-14.326 32-32 32h-164.269zM332.771 800v-61.867h76.8v61.867c0 17.673 14.33 32 32 32 17.674 0 32-14.327 32-32v-61.867h76.803v61.867c0 17.673 14.326 32 32 32s32-14.327 32-32v-61.867h76.8v61.867c0 17.673 14.326 32 32 32s32-14.327 32-32v-61.867h61.866c0.387 0 0.771-0.007 1.155-0.021 21.347-0.771 41.52-9.972 56.096-25.587 14.442-15.471 22.221-35.989 21.683-57.131v-508.658c0.538-21.142-7.242-41.661-21.683-57.133-14.576-15.613-34.749-24.816-56.096-25.587-0.384-0.013-0.768-0.019-1.155-0.019h-610.135c-0.385 0-0.77 0.006-1.154 0.019-21.347 0.771-41.519 9.974-56.094 25.587-14.442 15.472-22.223 35.99-21.685 57.133v508.657c-0.539 21.142 7.243 41.66 21.685 57.132 14.576 15.616 34.747 24.817 56.094 25.587 0.385 0.014 0.77 0.021 1.154 0.021h61.868v61.867c0 17.673 14.327 32 32 32s31.999-14.327 31.999-32zM691.174 659.199v14.933h-76.8v-14.933c0-17.673-14.326-31.999-32-31.999s-32 14.326-32 31.999v14.933h-76.803v-14.933c0-17.673-14.326-31.999-32-31.999-17.67 0-32 14.326-32 31.999v14.933h-76.8v-14.933c0-17.673-14.326-31.999-31.999-31.999s-32 14.326-32 31.999v14.933h-61.139c-4.263-0.263-8.27-2.148-11.191-5.278-3.019-3.234-4.633-7.533-4.488-11.955 0.012-0.349 0.017-0.699 0.017-1.049v-509.573c0-0.349-0.006-0.701-0.017-1.050-0.145-4.419 1.469-8.72 4.488-11.955 2.922-3.13 6.929-5.014 11.191-5.277h608.68c4.262 0.262 8.269 2.147 11.19 5.277 3.018 3.235 4.634 7.533 4.486 11.955-0.010 0.349-0.016 0.701-0.016 1.050v509.573c0 0.35 0.006 0.699 0.016 1.049 0.147 4.422-1.469 8.72-4.486 11.955-2.922 3.13-6.928 5.016-11.19 5.278h-61.139v-14.933c0-17.673-14.326-31.999-32-31.999s-32 14.326-32 31.999z" />
<glyph unicode="&#xe911;" glyph-name="content-pen" d="M858.947 794.218c-23.466 23.467-54.186 36.267-87.040 36.267h-0.426c-23.040 0-45.229-5.973-64.429-17.92-5.546 3.413-11.091 6.4-17.491 8.96-30.294 12.8-64.429 12.8-94.72 0-14.934-5.973-28.589-14.933-40.109-26.453l-97.28-97.28c-12.371-12.8-12.371-32.853 0-45.227 6.4-6.4 14.509-9.387 22.614-9.387 8.534 0 16.64 2.987 22.614 9.387l97.28 96.853c5.546 5.973 12.371 10.24 19.626 13.227 11.094 4.693 23.466 5.547 35.414 2.987l-375.468-375.465c-14.507-14.509-23.040-34.56-23.040-55.040 0-5.974 0.853-11.52 2.56-17.494-17.493-4.694-33.28-14.080-46.080-27.306-31.573-31.149-60.16-139.094-67.84-171.094-2.987-10.666 0-22.186 8.107-30.294 6.4-5.971 14.507-9.386 22.613-9.386 2.56 0 5.12 0.426 7.68 0.854 32.427 7.68 140.373 35.411 171.519 66.986 13.654 12.8 23.040 29.014 27.734 46.506 5.546-1.28 10.666-1.706 16.64-1.706 10.24 0 20.054 1.706 29.44 5.546 9.814 4.269 18.346 9.814 25.6 17.069l405.334 405.331c23.040 23.468 35.411 54.614 35.411 87.468-0.426 32.853-13.226 63.573-36.266 86.613zM310.254 193.472c-8.96-8.96-46.507-23.466-88.32-35.84 12.8 41.386 27.307 78.934 36.693 87.894 6.827 7.251 16.64 11.52 26.88 11.52h0.853c9.387 0 18.773-3.414 25.6-9.814 6.827-7.254 10.241-16.64 10.241-26.88-0.429-10.24-4.268-19.626-11.948-26.88zM408.813 260.458c0 0-2.56-2.131-4.266-2.986-3.414-1.28-7.254-1.28-10.666 0-1.709 0.854-2.989 1.706-4.269 2.986l-31.571 31.574c0 0-0.854 0.854-1.28 1.28l-32 32c-2.56 2.56-4.269 5.974-4.269 9.814s1.709 7.251 4.269 9.811l269.226 268.8 84.054-84.051-269.229-269.229zM814.147 665.365l-90.88-90.879-84.054 84.052 90.454 90.88c11.094 11.093 26.026 17.067 41.814 17.067 15.786 0 31.146-5.973 42.24-17.493 11.091-11.093 17.491-26.027 17.491-41.813s-5.971-30.72-17.066-41.813z" />
<glyph unicode="&#xe912;" glyph-name="ambulance-car1" d="M913.069 586.672c-15.789 15.786-37.549 24.746-59.734 24.746h-152.32c-1.28 27.734-12.374 52.908-32 72.535-41.814 41.813-114.774 41.813-156.586 0-19.629-19.627-30.72-44.801-32-72.535h-47.36c-22.614 0-43.52-8.96-59.734-24.746-8.106-8.106-14.080-17.494-18.346-27.734h-90.881c-18.773 0-37.547-6.4-52.053-18.346-14.933-11.52-25.6-27.734-30.293-48.214l-14.080-77.651-43.947-29.44c-11.52-7.68-20.907-17.92-27.733-30.294-6.4-12.371-9.813-26.026-9.813-40.106v-155.734c0-22.186 8.96-43.946 24.747-59.731 15.787-15.789 37.12-24.749 59.733-24.749h89.6c4.267-7.251 9.813-14.080 15.787-20.054 20.907-20.906 49.066-32.426 78.506-32.426s57.174 11.52 78.080 32.426c5.974 5.974 11.52 12.803 15.789 20.054h205.651c4.269-7.251 9.814-14.080 15.789-20.054 20.906-20.906 49.491-32.426 78.506-32.426s57.6 11.52 78.506 32.426c5.974 5.974 11.52 12.803 15.789 20.054h10.666c22.186 0 43.946 8.96 59.734 24.749 16.211 15.786 24.746 37.12 24.746 59.731v367.786c0 22.614-8.534 43.52-24.746 59.734zM557.654 638.726c17.494 17.493 48.64 17.493 66.134 0 7.68-7.68 12.371-17.069 13.226-27.309h-92.586c1.28 10.24 5.971 20.054 13.226 27.309zM244.054 138.672h-73.387c-5.547 0-10.667 2.134-14.507 5.974s-5.973 8.96-5.973 14.506v155.734c0 3.411 0.853 6.826 2.133 9.814 1.707 2.986 4.267 5.546 6.827 7.251l55.467 36.694c7.253 5.12 12.373 12.8 13.653 21.331l16.213 89.603c0.853 4.266 3.413 8.106 7.253 11.091 3.413 2.56 7.68 4.266 12.373 4.266h84.481v-253.011c-26.88-0.854-52.908-11.094-72.535-30.72s-30.72-44.8-32-72.534zM387.414 99.846c-17.494-17.494-48.64-17.494-66.134 0-8.532 8.96-13.652 20.48-13.652 32.851 0 12.374 4.693 24.323 13.652 33.283s20.48 13.651 33.28 13.651c12.8 0 24.32-4.691 32.854-13.651 8.96-8.96 13.654-20.483 13.654-33.283s-4.694-23.891-13.654-32.851zM781.654 99.846c-17.494-17.494-49.066-17.494-66.56 0-8.534 8.96-13.654 20.48-13.654 32.851 0 12.374 5.12 24.323 14.080 33.283 8.534 8.96 20.48 13.651 32.854 13.651s24.32-4.691 33.28-13.651c8.534-8.534 13.654-20.909 13.654-33.283 0-12.371-5.12-24.317-13.654-32.851zM873.814 159.152c0-5.546-2.134-10.666-5.974-14.506-2.56-2.56-5.546-4.269-8.96-4.694-1.706 26.88-13.226 52.48-32 71.254-42.24 41.814-115.2 41.814-156.586 0-20.054-19.626-31.146-44.8-32.426-72.534h-173.229c-1.28 27.734-12.371 52.909-32 72.534-5.971 5.974-12.8 11.094-20.051 15.36v300.371c0 5.12 2.131 10.669 5.971 14.509s9.389 5.971 14.509 5.971h420.266c5.546 0 10.666-2.131 14.506-5.971s5.974-8.96 5.974-14.509v-367.786zM753.92 369.066c0-17.491-14.080-32-32-32h-46.509v-46.506c0-17.92-14.506-32-32-32-17.491 0-32 14.080-32 32v46.506h-46.931c-17.494 0-32 14.509-32 32 0 17.494 14.506 32 32 32h46.931v46.934c0 17.494 14.080 32 32 32s32-14.506 32-32v-46.934h46.509c17.92 0 32-14.080 32-32zM622.938 841.812v-52.48c0-17.493-14.506-32-32-32s-32 14.507-32 32v52.48c0 17.92 14.080 32 32 32s32-14.080 32-32zM776.954 775.252l-26.451-52.48c-5.549-11.52-16.64-17.92-28.589-17.92-4.691 0-9.386 1.28-14.080 3.413-15.786 8.107-22.186 27.307-14.506 43.093l26.454 52.48c7.68 15.787 26.88 22.187 43.091 14.080 15.789-7.68 22.189-26.88 14.080-42.667zM474.010 708.266c-4.266-2.133-9.386-3.413-14.080-3.413-11.946 0-23.040 6.4-28.586 17.92l-26.454 52.48c-7.68 15.787-1.28 34.987 14.506 42.667 15.789 8.107 34.989 1.707 42.669-14.080l26.451-52.48c7.68-15.787 1.28-34.987-14.506-43.093z" />
<glyph unicode="&#xe913;" glyph-name="hospital-house1" d="M214.614 452.147c17.673 0 32-14.326 32-32v-313.866c0-5.565 2.21-10.899 6.144-14.835 3.934-3.933 9.27-6.144 14.833-6.144h488.799c5.565 0 10.899 2.211 14.835 6.144 3.933 3.936 6.144 9.27 6.144 14.835v313.866c0 17.674 14.326 32 32 32s32-14.326 32-32v-313.866c0-22.538-8.954-44.154-24.89-60.090s-37.552-24.89-60.090-24.89h-488.799c-22.537 0-44.152 8.954-60.088 24.89s-24.889 37.552-24.889 60.090v313.866c0 17.674 14.327 32 32 32zM490.163 867.394c12.294 11.475 31.373 11.475 43.667 0l397.334-370.844c12.918-12.061 13.619-32.31 1.558-45.229-12.058-12.922-32.307-13.619-45.226-1.558l-375.501 350.464-375.499-350.464c-12.92-12.061-33.169-11.363-45.228 1.558-12.059 12.918-11.36 33.168 1.56 45.229l397.333 370.844zM440.845 566.301c11.334 11.334 26.701 17.699 42.726 17.699h56.851c16.026 0 31.395-6.365 42.726-17.699 11.331-11.331 17.699-26.701 17.699-42.726v-53.274h53.274c16.026 0 31.395-6.365 42.726-17.696 11.331-11.334 17.696-26.701 17.696-42.73v-56.848c0-16.026-6.365-31.395-17.696-42.726s-26.701-17.699-42.726-17.699h-53.274v-53.274c0-16.026-6.368-31.395-17.699-42.726s-26.701-17.696-42.726-17.696h-56.851c-16.026 0-31.392 6.365-42.726 17.696-11.331 11.331-17.696 26.701-17.696 42.726v53.274h-53.274c-16.026 0-31.395 6.368-42.726 17.699-11.333 11.331-17.699 26.701-17.699 42.726v56.848c0 16.029 6.366 31.395 17.699 42.73 11.331 11.331 26.701 17.696 42.726 17.696h53.274v53.274c0 16.026 6.365 31.395 17.696 42.726zM487.149 520v-81.699c0-17.674-14.326-32-32-32h-81.699v-49.699h81.699c17.674 0 32-14.326 32-32v-81.696h49.699v81.696c0 17.674 14.326 32 32 32h81.696v49.699h-81.696c-17.674 0-32 14.326-32 32v81.699h-49.699z" />
<glyph unicode="&#xe914;" glyph-name="medical-instrument-stethoscope" d="M253.867 832c17.673 0 32-14.327 32-32v-117.333c0-17.673-14.327-32-32-32s-32 14.327-32 32v38.4h-14.934c-3.961 0-7.759-1.573-10.56-4.374s-4.374-6.599-4.374-10.559v-187.733c0-41.302 16.408-80.915 45.613-110.122 29.127-29.126 68.603-45.523 109.785-45.613 0.112 0.003 0.224 0.003 0.336 0.003s0.221 0 0.333-0.003c41.184 0.090 80.659 16.486 109.786 45.613 29.206 29.206 45.613 68.819 45.613 110.122v187.733c0 3.961-1.571 7.759-4.374 10.559-2.8 2.801-6.598 4.374-10.557 4.374h-14.934v-38.4c0-17.673-14.326-32-32-32s-32 14.327-32 32v117.333c0 17.673 14.326 32 32 32s32-14.327 32-32v-14.933h14.934c20.934 0 41.011-8.316 55.814-23.119s23.117-34.88 23.117-55.814v-187.733c0-58.278-23.149-114.166-64.358-155.376-33.562-33.562-76.867-55.149-123.267-62 1.562-45.283 20.234-88.387 52.381-120.534 33.606-33.606 79.187-52.486 126.714-52.486s93.107 18.88 126.714 52.486c33.606 33.606 52.486 79.184 52.486 126.714v89.466c-21.382 5.619-41.101 16.829-57.002 32.73-23.606 23.603-36.867 55.619-36.867 89.002s13.261 65.395 36.867 89.002c23.603 23.603 55.619 36.864 89.002 36.864 33.379 0 65.395-13.261 89.002-36.864 23.603-23.606 36.864-55.619 36.864-89.002s-13.261-65.398-36.864-89.002c-15.904-15.901-35.622-27.11-57.002-32.73v-89.466c0-64.502-25.622-126.362-71.232-171.971-45.61-45.606-107.469-71.229-171.968-71.229-64.502 0-126.362 25.622-171.968 71.229-44.144 44.147-69.567 103.514-71.154 165.763-46.471 6.822-89.845 28.422-123.454 62.029-41.208 41.21-64.358 97.098-64.358 155.376v187.733c0 20.934 8.316 41.012 23.119 55.814s34.88 23.119 55.814 23.119h14.934v14.933c0 17.673 14.327 32 32 32zM770.483 456.534c16.282 0.090 31.875 6.598 43.395 18.118 11.603 11.603 18.122 27.338 18.122 43.747 0 16.406-6.518 32.144-18.122 43.744-11.6 11.603-27.338 18.122-43.744 18.122-16.41 0-32.144-6.518-43.747-18.122-11.603-11.6-18.122-27.338-18.122-43.744 0-16.41 6.518-32.144 18.122-43.747 11.52-11.52 27.114-18.029 43.395-18.118 0.118 0 0.234 0 0.352 0 0.115 0 0.234 0 0.349 0z" />
<glyph unicode="&#xe915;" glyph-name="read-email-at" d="M848 709.76c-44.438 56.14-102.323 100.163-168.294 127.991s-137.898 38.563-209.117 31.211c-71.222-7.353-139.44-32.555-198.333-73.273-58.895-40.718-106.565-95.637-138.597-159.672s-47.392-135.117-44.656-206.666c2.735-71.546 23.477-141.248 60.305-202.65 36.828-61.405 88.552-112.522 150.384-148.624 61.832-36.106 131.771-56.026 203.348-57.917h11.2c92.275 0.045 182.067 29.901 256 85.12 6.787 5.091 11.277 12.672 12.477 21.075 1.2 8.4-0.986 16.934-6.077 23.725-5.094 6.79-12.675 11.277-21.075 12.477-8.403 1.2-16.938-0.986-23.725-6.077-65.21-48.909-145.034-74.346-226.515-72.192-81.485 2.154-159.85 31.776-222.385 84.061s-105.569 124.163-122.123 203.978c-16.554 79.814-5.655 162.88 30.928 235.722s96.704 131.187 170.611 165.57c73.904 34.383 157.258 42.787 236.541 23.848 79.28-18.939 149.84-64.109 200.224-128.182 50.387-64.074 77.648-143.293 77.36-224.804v-78.72c0.016-9.581-1.872-19.069-5.552-27.91-3.68-8.845-9.082-16.87-15.888-23.61-13.875-13.261-32.33-20.662-51.52-20.662-19.194 0-37.648 7.402-51.52 20.662-6.81 6.739-12.211 14.765-15.891 23.61-3.68 8.842-5.565 18.33-5.549 27.91v80c-0.045 35.45-8.826 70.342-25.565 101.59-16.742 31.248-40.928 57.888-70.416 77.562s-63.373 31.776-98.653 35.236c-35.28 3.459-70.87-1.831-103.619-15.403s-61.648-35.007-84.141-62.409c-22.49-27.402-37.881-59.923-44.809-94.691-6.928-34.765-5.179-70.704 5.091-104.634s28.745-64.803 53.791-89.891c30.208-30.058 68.608-50.538 110.4-58.88 13.901-2.81 28.054-4.205 42.24-4.16 28.32 0 56.368 5.542 82.56 16.32 32.256 13.507 60.71 34.714 82.88 61.76 6.47-14.042 15.229-26.912 25.92-38.080 19.098-19.142 43.434-32.205 69.942-37.539s54.003-2.704 79.018 7.562c25.014 10.266 46.432 27.709 61.552 50.128 15.12 22.416 23.264 48.81 23.408 75.85v79.68c-0.211 95.85-32.672 188.842-92.16 264zM572.16 305.6c-27.738-11.456-58.24-14.461-87.68-8.64-29.389 5.968-56.362 20.477-77.539 41.712-21.174 21.232-35.613 48.243-41.501 77.648-6.282 31.894-2.15 64.963 11.782 94.333 13.936 29.37 36.938 53.485 65.616 68.79s61.514 20.995 93.67 16.227c32.154-4.768 61.93-19.741 84.931-42.71 14.189-14 25.434-30.694 33.072-49.107 7.638-18.41 11.517-38.16 11.408-58.093-0.013-29.968-8.925-59.261-25.6-84.16-16.57-25.101-40.323-44.618-68.16-56z" />
<glyph unicode="&#xe916;" glyph-name="smiley-smile-2" d="M348.893 584.867c8.461 8.461 19.939 13.216 31.904 13.216 8.925 0 17.648-2.646 25.069-7.606 7.421-4.957 13.203-12.003 16.618-20.25 3.414-8.243 4.307-17.315 2.566-26.067s-6.038-16.794-12.349-23.104c-6.307-6.31-14.349-10.605-23.101-12.346s-17.824-0.848-26.070 2.566c-8.243 3.414-15.29 9.197-20.246 16.618-4.96 7.421-7.606 16.144-7.606 25.069 0 11.965 4.755 23.443 13.216 31.904zM643.197 598.083c-11.965 0-23.443-4.755-31.904-13.216s-13.216-19.939-13.216-31.904c0-8.925 2.646-17.648 7.606-25.069 4.957-7.421 12.003-13.203 20.25-16.618 8.243-3.414 17.315-4.307 26.067-2.566s16.794 6.035 23.104 12.346c6.31 6.31 10.605 14.352 12.346 23.104 1.744 8.752 0.848 17.824-2.566 26.067-3.414 8.246-9.197 15.293-16.618 20.25-7.421 4.96-16.144 7.606-25.069 7.606zM328.931 357.251c-7.846 15.837-27.044 22.314-42.88 14.464-15.836-7.846-22.312-27.043-14.465-42.88 22.19-44.781 56.449-82.474 98.916-108.822 42.464-26.352 91.45-40.314 141.427-40.314s98.96 13.962 141.427 40.314c42.464 26.349 76.723 64.042 98.915 108.822 7.846 15.837 1.37 35.034-14.467 42.88-15.834 7.85-35.034 1.373-42.88-14.464-16.896-34.096-42.979-62.794-75.315-82.858-32.333-20.064-69.629-30.694-107.68-30.694-38.054 0-75.35 10.63-107.683 30.694s-58.419 48.762-75.315 82.858zM512 873.602c-112.877 0-221.131-44.84-300.946-124.655s-124.655-188.069-124.655-300.946c0-112.874 44.84-221.126 124.655-300.944 79.816-79.814 188.069-124.656 300.946-124.656 112.874 0 221.126 44.842 300.944 124.656 79.814 79.818 124.656 188.070 124.656 300.944 0 112.877-44.842 221.131-124.656 300.946-79.818 79.815-188.070 124.655-300.944 124.655zM256.308 703.692c67.813 67.813 159.788 105.91 255.692 105.91 95.901 0 187.875-38.097 255.69-105.91 67.811-67.813 105.91-159.788 105.91-255.692 0-95.901-38.099-187.875-105.91-255.69-67.814-67.811-159.789-105.91-255.69-105.91-95.904 0-187.878 38.099-255.692 105.91-67.813 67.814-105.91 159.789-105.91 255.69 0 95.904 38.097 187.878 105.91 255.692z" />
<glyph unicode="&#xe917;" glyph-name="conversation-chat-1" d="M196.374 763.626c2.801 2.8 6.599 4.374 10.56 4.374h328.532c3.962 0 7.76-1.573 10.56-4.374s4.374-6.599 4.374-10.56v-93.867c0-17.673 14.326-32 32-32s32 14.327 32 32v93.867c0 20.934-8.317 41.012-23.12 55.814s-34.88 23.119-55.814 23.119h-328.532c-20.934 0-41.012-8.316-55.814-23.119s-23.119-34.88-23.119-55.814v-234.667c0-20.934 8.316-41.011 23.119-55.814s34.88-23.12 55.814-23.12h14.933v-108.8c0-12.941 7.797-24.611 19.754-29.562 11.957-4.954 25.721-2.218 34.873 6.934l93.868 93.869c12.496 12.496 12.496 32.755 0 45.254-12.499 12.496-32.758 12.496-45.254 0l-39.241-39.242v63.546c0 17.674-14.327 32-32 32h-46.933c-3.961 0-7.759 1.574-10.56 4.374s-4.374 6.598-4.374 10.56v234.667c0 3.961 1.573 7.759 4.374 10.56zM488.534 597.331c-20.934 0-41.011-8.317-55.814-23.117-14.803-14.803-23.12-34.88-23.12-55.814v-234.669c0-20.934 8.317-41.011 23.12-55.814s34.88-23.117 55.814-23.117h127.546l131.427-131.427c9.152-9.152 22.915-11.891 34.874-6.938s19.754 16.621 19.754 29.565v108.8h14.934c20.934 0 41.011 8.314 55.814 23.117s23.117 34.88 23.117 55.814v234.669c0 20.934-8.314 41.011-23.117 55.814-14.803 14.8-34.88 23.117-55.814 23.117h-328.534zM477.974 528.957c2.8 2.803 6.598 4.374 10.56 4.374h328.534c3.962 0 7.757-1.571 10.56-4.374 2.8-2.8 4.371-6.598 4.371-10.557v-234.669c0-3.958-1.571-7.757-4.371-10.56-2.803-2.8-6.602-4.371-10.56-4.371h-46.934c-17.674 0-32-14.33-32-32v-63.546l-86.173 86.173c-6 6-14.141 9.373-22.627 9.373h-140.8c-3.962 0-7.757 1.571-10.56 4.371-2.8 2.803-4.374 6.602-4.374 10.56v234.669c0 3.958 1.574 7.757 4.374 10.557z" />
<glyph unicode="&#xe918;" glyph-name="car-repair-checklist-11" d="M874.666 832h-298.666c-35.414 0-64-28.587-64-64v-341.334c0-35.411 28.586-64 64-64h298.666c35.414 0 64 28.589 64 64v341.334c0 35.413-28.586 64-64 64zM874.666 426.666h-298.666v341.334h298.666v-341.334zM821.334 330.685c-17.92 0-32-14.506-32-32v-57.6c0-10.666-8.534-19.2-19.2-19.2h-558.934c-10.667 0-19.2 8.534-19.2 19.2v73.386c0 29.44 23.893 53.334 53.333 53.334h192.001c17.491 0 32 14.506 32 32s-14.509 32-32 32h-150.614l40.106 78.934c6.4 12.371 19.2 20.051 33.28 20.051h77.229c17.491 0 32 14.509 32 32 0 17.494-14.509 32-32 32h-77.229c-38.4 0-72.959-20.906-90.452-55.040l-57.173-112.64c-48.64-14.080-84.48-59.306-84.48-112.64v-73.386c0-20.906 8.107-40.534 21.333-55.466v-44.8c0-42.24 34.133-76.8 76.8-76.8s76.8 34.56 76.8 76.8v17.066h375.467v-17.066c0-42.24 34.56-76.8 76.8-76.8s76.8 34.56 76.8 76.8v44.8c13.226 14.931 21.334 34.56 21.334 55.466v57.6c0 17.494-14.509 32-32 32zM238.933 140.819c0-7.254-5.973-12.8-12.8-12.8-7.253 0-12.8 5.546-12.8 12.8v16.64h25.6v-16.64zM768 140.819c0-7.254-5.546-12.8-12.8-12.8s-12.8 5.546-12.8 12.8v16.64h25.6v-16.64zM266.667 252.166c23.564 0 42.667 19.104 42.667 42.666 0 23.565-19.103 42.669-42.667 42.669s-42.667-19.104-42.667-42.669c0-23.562 19.102-42.666 42.667-42.666zM714.666 252.166c23.565 0 42.669 19.104 42.669 42.666 0 23.565-19.104 42.669-42.669 42.669-23.562 0-42.666-19.104-42.666-42.669 0-23.562 19.104-42.666 42.666-42.666zM833.709 637.002l-119.040-123.734c-6.4-6.4-14.934-9.814-23.040-9.814-8.109 0-15.789 2.989-21.76 8.534l-51.629 46.934c-12.8 11.946-13.651 32.426-1.706 45.226 11.946 13.226 32 14.080 45.226 2.134l28.16-26.029 97.709 101.121c12.371 12.8 32.426 12.8 45.226 0.853 12.8-12.373 13.226-32.853 0.854-45.226z" />
<glyph unicode="&#xe919;" glyph-name="car-dashboard-window-rear-wipe" d="M543.782 458.87v-56.32c0-17.92-14.080-32-31.574-32s-32.426 14.080-32.426 32v56.32c0 17.491 14.506 32 32.426 32s31.574-14.509 31.574-32zM543.782 798.078v-56.747c0-17.493-14.080-32-31.574-32s-32.426 14.507-32.426 32v56.747c0 17.493 14.506 32 32.426 32s31.574-14.507 31.574-32zM543.782 628.266v-56.32c0-17.494-14.080-32-31.574-32s-32.426 14.506-32.426 32v56.32c0 17.92 14.506 32 32.426 32s31.574-14.080 31.574-32zM593.283 188.371c-4.694 10.669-11.094 20.48-19.2 28.589-8.534 8.531-17.92 14.931-29.014 19.2-14.080 5.971-29.44 8.106-44.8 5.971l-195.413 362.669c-8.107 15.36-27.733 21.331-43.093 12.8-15.787-8.109-21.333-27.734-13.227-43.094l93.438-172.8c-20.051-7.68-37.972-15.786-60.158-27.306-2.987-1.28-5.973-2.134-9.387-2.56-2.987 0-6.4 0-9.813 1.28-2.56 0.851-5.547 2.56-8.107 4.691-2.56 2.134-4.267 4.694-5.973 7.68l-91.307 189.44c-9.813 20.054-11.52 42.669-4.267 64 7.253 20.908 21.76 38.402 41.813 48.642 66.133 33.707 136.533 57.173 209.493 69.547 17.494 2.987 29.44 19.2 26.454 36.693-2.989 17.493-20.054 29.44-37.12 26.453-79.361-13.653-156.161-39.253-227.841-75.947-34.987-17.92-61.013-48.213-73.387-85.333-12.373-36.695-9.813-76.8 7.253-111.786l91.307-189.44c5.12-10.669 12.373-20.054 21.333-27.734 8.96-8.106 19.2-13.654 30.293-17.494 8.96-2.986 18.347-4.691 28.16-4.691h5.973c11.947 0.851 23.467 4.266 34.133 9.386 23.039 11.946 40.105 19.626 61.439 27.306h0.426l71.68-133.12c-6.4-6.826-11.091-14.506-14.931-23.040-4.269-10.666-6.4-22.186-6.4-34.131 0-11.949 2.131-23.040 6.4-33.709 4.691-10.666 11.091-20.48 19.2-28.586 8.531-8.534 17.92-14.934 29.011-19.2 10.669-4.694 22.189-6.826 33.709-6.826s23.040 2.131 33.706 6.826c11.094 4.266 20.48 10.666 29.014 19.2 8.531 8.534 14.506 17.92 19.2 28.586 4.266 10.669 6.4 22.189 6.4 33.709s-2.134 23.466-6.4 34.131zM533.974 144.851c-1.28-2.56-2.986-5.546-5.12-7.68-2.56-2.56-5.12-4.266-8.106-5.546-5.974-2.134-12.8-2.134-18.774 0-2.986 1.28-5.546 2.986-8.106 5.546-2.134 2.134-3.84 5.12-5.12 7.68-1.28 2.989-1.706 6.4-1.706 9.389 0 3.411 0.426 6.4 1.706 9.386s2.986 5.974 5.12 8.106c2.56 2.134 5.12 4.269 8.106 5.12 2.989 1.28 5.974 2.134 9.389 2.134 2.986 0 6.4-0.854 9.386-2.134 2.986-0.851 5.546-2.986 8.106-5.12 2.134-2.131 3.84-5.12 5.12-8.106 1.28-2.56 1.709-5.974 1.709-9.386 0-2.989-0.429-6.4-1.709-9.389zM924.374 547.2l-91.306-189.44c-5.12-10.669-12.374-20.054-21.334-27.734-8.534-7.68-18.774-13.654-29.866-17.494-9.389-2.986-18.774-4.691-28.589-4.691h-6.4c-11.52 0.851-23.040 4.266-33.28 9.386-31.146 15.786-64 28.586-97.28 37.974-17.066 4.691-26.88 22.611-22.186 39.68 4.694 16.64 22.186 26.88 39.68 22.186 37.12-10.666 73.814-25.174 108.374-42.666 2.986-1.28 5.971-2.134 9.386-2.56 3.414-0.429 6.4 0 9.386 1.28 3.414 0.851 5.974 2.56 8.534 4.691 2.56 2.134 4.266 5.12 5.974 8.109l91.306 189.011c9.814 20.054 11.52 42.669 4.266 64-7.251 20.908-21.76 38.402-41.811 48.642-66.134 33.707-136.534 57.173-209.494 69.547-17.494 2.987-29.44 19.2-26.454 36.693 2.989 17.493 20.054 29.44 37.12 26.453 79.36-13.653 156.16-39.253 227.84-75.947 34.989-17.92 61.014-48.213 73.389-85.333 12.371-37.12 9.811-76.8-7.254-111.786z" />
<glyph unicode="&#xe91a;" glyph-name="car-repair-24h-service1" d="M680 415.363c8.486 0 16.627 3.373 22.627 9.373 6.003 6.003 9.373 14.141 9.373 22.627v224.001c0 8.487-3.37 16.626-9.373 22.627-6 6.001-14.141 9.373-22.627 9.373-38.163-0.085-74.742-15.283-101.728-42.27-26.989-26.988-42.186-63.564-42.272-101.731v-28.16c0-8.486 3.373-16.624 9.373-22.627 6.003-6 14.141-9.373 22.627-9.373h80v-51.84c0-8.486 3.373-16.624 9.373-22.627 6.003-6 14.141-9.373 22.627-9.373zM600 563.523c0.973 19.888 9.299 38.704 23.36 52.8 7.229 6.966 15.552 12.698 24.64 16.96v-69.76h-48zM488 615.043c-0.112 23.334-9.293 45.71-25.6 62.401-16.906 15.861-39.216 24.689-62.4 24.689-23.181 0-45.491-8.828-62.4-24.689-16.422-16.614-25.622-39.041-25.599-62.401 0-8.486 3.372-16.624 9.372-22.627 6.003-6 14.141-9.373 22.627-9.373 8.49 0 16.627 3.373 22.627 9.373 6.003 6.003 9.373 14.141 9.373 22.627 0.006 6.365 2.538 12.464 7.040 16.96 4.579 4.346 10.65 6.768 16.96 6.768 6.314 0 12.384-2.422 16.96-6.768 4.502-4.496 7.037-10.595 7.040-16.96-0.090-10.918-3.805-21.501-10.56-30.080l-93.44-118.4c-3.413-4.515-5.567-9.859-6.242-15.482-0.675-5.619 0.155-11.322 2.403-16.518 2.594-5.443 6.674-10.045 11.769-13.274 5.094-3.226 10.998-4.947 17.030-4.966h112c8.486 0 16.627 3.373 22.627 9.373 6.003 6.003 9.373 14.141 9.373 22.627s-3.37 16.627-9.373 22.627c-6 6.003-14.141 9.373-22.627 9.373h-46.4l52.8 63.040c16.294 20.304 25.008 45.651 24.64 71.68zM922.56 553.283c-23.747 92.095-77.792 173.521-153.43 231.172-75.642 57.652-168.48 88.177-263.574 86.662-95.098-1.515-186.916-34.981-260.682-95.013s-125.189-143.139-145.992-235.942l-8.32 12.48c-2.353 3.488-5.371 6.48-8.879 8.8-3.509 2.323-7.441 3.93-11.571 4.733-8.341 1.619-16.985-0.141-24.029-4.893s-11.912-12.109-13.532-20.451c-1.62-8.339 0.14-16.982 4.892-24.029l56-83.2c0.557-0.717 1.203-1.363 1.92-1.92 1.357-1.734 2.976-3.245 4.8-4.48l4.48-3.52 6.080-2.24c0 0 1.92 0 3.2 0h7.040c3.38 0.173 6.72 0.819 9.92 1.92l7.040 3.52 83.2 52.48c7.001 4.797 11.811 12.176 13.371 20.518s-0.257 16.96-5.051 23.962c-4.742 6.963-12.037 11.776-20.305 13.392-8.267 1.619-16.839-0.090-23.855-4.752l-25.28-16.32c12.112 61.168 39.904 118.144 80.654 165.341s93.060 83.003 151.809 103.906 121.917 26.189 183.322 15.339c61.405-10.85 118.938-37.464 166.966-77.234 48.026-39.771 84.899-91.332 107.008-149.639 22.106-58.304 28.691-121.354 19.107-182.966-9.584-61.616-35.008-119.686-73.782-168.518-38.771-48.835-89.565-86.765-147.405-110.067-80.797-32.845-170.778-35.213-253.19-6.662s-151.645 86.074-194.809 161.862c-2.101 3.658-4.902 6.864-8.242 9.437s-7.155 4.464-11.226 5.565c-4.071 1.098-8.318 1.386-12.5 0.842-4.182-0.541-8.216-1.901-11.872-4.003-3.656-2.099-6.862-4.902-9.436-8.24-2.574-3.341-4.464-7.155-5.564-11.226-1.1-4.074-1.387-8.32-0.844-12.502s1.902-8.214 4.004-11.872c50.918-89.267 132.589-156.947 229.759-190.4 44.438-15.507 91.174-23.405 138.24-23.36 64.816 0.125 128.742 15.075 186.893 43.706 58.147 28.63 108.979 70.182 148.598 121.478 39.622 51.293 66.986 110.97 79.997 174.467 13.011 63.494 11.325 129.126-4.928 191.869zM434.24 340.483c-8.358 8.429-18.339 15.072-29.341 19.526s-22.79 6.63-34.659 6.394c-8.486 0-16.624-3.37-22.627-9.373-6-6-9.373-14.141-9.373-22.627s3.373-16.624 9.373-22.627c6.003-6 14.141-9.373 22.627-9.373 3.158 0.035 6.288-0.573 9.203-1.782 2.912-1.21 5.552-2.998 7.757-5.258 2.333-2.163 4.189-4.79 5.456-7.709s1.917-6.067 1.904-9.251c-0.173-6.483-2.806-12.659-7.36-17.28-2.205-2.256-4.845-4.045-7.757-5.254-2.915-1.21-6.045-1.818-9.203-1.786-8.486 0-16.624-3.37-22.627-9.373-6-6-9.373-14.141-9.373-22.627s3.373-16.624 9.373-22.627c6.003-6 14.141-9.373 22.627-9.373 11.859-0.163 23.629 2.048 34.618 6.499 10.992 4.451 20.982 11.053 29.382 19.421 8.496 8.71 15.139 19.053 19.52 30.4h116.48c4.384-11.347 11.024-21.69 19.52-30.4 16.582-16.509 39.002-25.821 62.4-25.92 8.486 0 16.627 3.373 22.627 9.373 6.003 6.003 9.373 14.141 9.373 22.627s-3.37 16.627-9.373 22.627c-6 6.003-14.141 9.373-22.627 9.373-3.222 0.022-6.413 0.682-9.379 1.946s-5.651 3.104-7.901 5.414c-4.387 4.573-6.902 10.624-7.040 16.96-0.010 3.184 0.64 6.333 1.904 9.251 1.267 2.918 3.126 5.546 5.456 7.709 4.499 4.502 10.598 7.034 16.96 7.040 8.486 0 16.627 3.373 22.627 9.373 6.003 6.003 9.373 14.141 9.373 22.627s-3.37 16.627-9.373 22.627c-6 6.003-14.141 9.373-22.627 9.373-11.597 0.022-23.085-2.256-33.795-6.707-10.714-4.448-20.435-10.979-28.605-19.213-8.592-8.506-15.248-18.768-19.52-30.080h-116.48c-4.269 11.312-10.928 21.574-19.52 30.080z" />
<glyph unicode="&#xe91b;" glyph-name="car-dashboard-window-rear" d="M426.762 247.094v-108.416c0-17.674-14.31-32-31.962-32-17.654 0-31.965 14.326-31.965 32v87.699c-27.194-10.816-52.452-23.318-74.72-35.709-46.828-26.054-111.032-5.011-125.788 46.547l-71.55 250.010c-8.758 30.602-7.724 63.37 8.846 90.541 44.398 72.796 161.888 211.577 412.379 211.577 250.49 0 367.981-138.781 412.378-211.577 16.57-27.171 17.603-59.939 8.848-90.541l-71.552-250.010c-14.755-51.558-78.957-72.602-125.786-46.547-16.336 9.088-34.282 18.24-53.418 26.739v-78.704c0-17.674-14.31-32-31.965-32-17.651 0-31.962 14.326-31.962 32v102.563c-34.141 10.227-70.237 16.826-106.544 16.826-28.838 0-57.542-4.163-85.242-10.998zM800.224 254.845l71.549 250.010c5.315 18.576 2.819 31.734-1.952 39.558-36.71 60.192-136.218 180.931-357.818 180.931s-321.108-120.739-357.818-180.931c-4.772-7.824-7.269-20.982-1.953-39.558l71.549-250.010c0.867-3.030 3.508-7.101 10.817-9.702 7.71-2.742 16.231-1.997 22.461 1.469 29.668 16.506 65.727 34.054 105.775 48.077v161.402l-30.672-30.707c-12.482-12.496-32.721-12.496-45.203 0s-12.483 32.758 0 45.254l85.238 85.334c12.48 12.496 32.72 12.496 45.203 0l85.235-85.334c12.483-12.496 12.483-32.758 0-45.254-12.48-12.496-32.72-12.496-45.203 0l-30.672 30.707v-143.344c27.51 5.846 56.128 9.347 85.242 9.347 36.714 0 72.634-5.568 106.544-14.384v148.381l-30.672-30.707c-12.483-12.496-32.72-12.496-45.203 0s-12.483 32.758 0 45.254l85.235 85.334c12.483 12.496 32.723 12.496 45.206 0l85.235-85.334c12.483-12.496 12.483-32.758 0-45.254s-32.72-12.496-45.203 0l-30.672 30.707v-169.322c31.568-12.41 60.163-26.634 84.47-40.157 6.23-3.466 14.752-4.211 22.464-1.469 7.309 2.602 9.949 6.672 10.816 9.702z" />
<glyph unicode="&#xe91c;" glyph-name="car-actions-search-11" d="M825.434 692.469l-64 125.44c-17.92 34.987-53.331 56.747-92.586 56.747h-334.934c-39.252 0-74.665-21.76-92.585-56.747l-63.573-125.44c-51.627-5.973-92.16-50.347-92.16-103.679v-114.349c-0.427-19.626 7.253-37.971 20.907-52.051 0.853-0.854 1.707-1.709 2.56-2.134v-42.24c0-45.654 37.12-83.2 83.2-83.2s82.773 37.546 82.773 83.2v23.040h78.079c17.494 0 32 14.080 32 32s-14.506 32-32 32h-194.559c-2.987 0-5.12 1.28-6.4 2.56s-2.987 3.414-2.987 6.826v114.349c0.427 22.611 18.347 40.531 40.96 40.531h622.934c22.186 0 40.531-17.92 40.531-40.531v-41.814c0-17.494 14.509-32 32-32 17.494 0 32 14.506 32 32v41.814c0 53.332-40.531 97.706-92.16 103.679zM173.062 401.056h37.973v-23.040c0-10.666-8.533-19.2-18.773-19.2s-19.2 8.534-19.2 19.2v23.040zM249.862 693.75l48.64 95.147c6.827 13.227 20.48 21.76 35.412 21.76h334.934c15.36 0 28.586-8.533 35.414-21.76l48.64-95.147h-503.041zM231.517 506.006c22.857 0 41.387 18.531 41.387 41.389s-18.53 41.386-41.387 41.386c-22.857 0-41.387-18.528-41.387-41.386s18.529-41.389 41.387-41.389zM929.123 118.611l-113.92 113.92c26.88 34.986 42.24 78.931 42.24 126.291 0 117.76-96 213.334-213.334 213.334-117.331 0-213.331-95.574-213.331-213.334s95.571-213.331 213.331-213.331c47.36 0 90.88 15.36 125.869 41.811l113.92-113.92c5.971-6.4 14.080-9.386 22.611-9.386 8.534 0 16.214 2.986 22.614 9.386 12.374 12.374 12.374 32.854 0 45.229zM494.778 358.822c0 82.349 66.986 149.334 149.331 149.334 82.349 0 149.334-66.986 149.334-149.334 0-82.346-66.986-149.331-149.334-149.331-82.346 0-149.331 66.986-149.331 149.331z" />
<glyph unicode="&#xe91d;" glyph-name="diamond" d="M922.013 627.84l-113.92 168.106c-6.4 8.96-14.931 16.64-24.32 22.187-2.986 2.133-6.4 3.84-9.811 5.12-11.094 5.547-23.894 8.107-36.269 8.107h-450.132c-11.947 0-24.747-2.987-36.267-8.107-3.413-1.28-6.4-2.987-8.96-4.693-9.813-5.547-18.773-13.653-26.027-23.467l-113.493-165.973c-11.947-15.789-17.493-35.414-17.493-55.040 0.427-20.054 7.68-39.254 20.053-53.76l339.628-424.109c8.106-10.24 18.346-17.92 30.291-23.466 10.24-4.694 20.909-7.68 32-8.106 3.904 0 3.84 0 5.549 0 1.706 0 1.686 0 5.12 0 10.666 0.426 22.186 3.411 32 8.106 11.946 5.546 22.186 13.226 30.72 23.894l337.491 423.251c12.8 14.934 20.054 34.134 20.48 54.189 0.429 19.626-5.546 39.251-16.64 53.76zM720.202 767.359l-46.509-129.279-96.851 129.279h143.36zM617.373 606.506h-209.491l104.96 139.52 104.531-139.52zM448.842 767.359l-96.854-128.854-46.507 128.854h143.361zM250.014 731.093l44.8-124.587h-130.133l85.333 124.587zM169.374 542.506h148.48l121.599-336.64-270.079 336.64zM512.842 190.931l-126.72 351.574h253.011l-126.291-351.574zM586.227 205.866l121.174 336.64h147.2l-268.374-336.64zM730.442 606.506l44.8 124.587 84.051-124.587h-128.851z" />
<glyph unicode="&#xe91e;" glyph-name="credit-card" d="M300.801 832h516.265c20.934 0 41.014-8.316 55.814-23.119 14.803-14.803 23.12-34.88 23.12-55.814v-352.001c0-17.674-14.326-32-32-32s-32 14.326-32 32v226.134h-547.284c-3.734-13.53-16.132-23.466-30.849-23.466-17.673 0-32 14.326-32 32v117.332c0 20.934 8.316 41.012 23.119 55.814s34.88 23.119 55.814 23.119zM832 691.199v61.867c0 3.961-1.574 7.759-4.374 10.56s-6.598 4.374-10.56 4.374h-516.265c-3.961 0-7.759-1.573-10.56-4.374s-4.374-6.599-4.374-10.56v-61.867h546.133zM221.867 260.266c0 17.674 14.327 32 32 32h70.398c17.674 0 32-14.326 32-32s-14.326-32-32-32h-70.398c-17.673 0-32 14.326-32 32zM550.768 335.075c-18.163 5.674-37.651 5.488-55.706-0.528-18.051-6.019-33.754-17.565-44.88-33.002s-17.114-33.984-17.114-53.014c0-19.027 5.987-37.574 17.114-53.011 11.126-15.44 26.829-26.982 44.88-33.002 18.054-6.016 37.542-6.202 55.706-0.528 7.011 2.189 13.686 5.21 19.901 8.97 6.211-3.76 12.886-6.781 19.898-8.97 18.163-5.674 37.651-5.488 55.706 0.528 18.054 6.019 33.754 17.562 44.88 33.002 11.13 15.437 17.117 33.984 17.117 53.011 0 19.030-5.987 37.578-17.117 53.014-11.126 15.437-26.826 26.982-44.88 33.002-18.054 6.016-37.542 6.202-55.706 0.528-7.011-2.189-13.686-5.21-19.898-8.97-6.214 3.76-12.89 6.781-19.901 8.97zM515.302 273.83c5.309 1.77 11.040 1.824 16.384 0.157 5.341-1.67 10.022-4.976 13.382-9.456 6.042-8.058 15.526-12.8 25.6-12.8 10.070 0 19.555 4.742 25.6 12.8 3.357 4.48 8.038 7.786 13.379 9.456 5.344 1.667 11.075 1.613 16.384-0.157 5.312-1.77 9.93-5.165 13.203-9.706 3.27-4.541 5.034-9.997 5.034-15.594s-1.763-11.050-5.034-15.59c-3.274-4.541-7.891-7.936-13.203-9.706-5.309-1.77-11.040-1.824-16.384-0.157-5.341 1.67-10.022 4.976-13.379 9.453-6.045 8.058-15.53 12.8-25.6 12.8-10.074 0-19.558-4.742-25.6-12.8-3.36-4.477-8.042-7.782-13.382-9.453-5.344-1.667-11.075-1.613-16.384 0.157-5.312 1.77-9.93 5.165-13.2 9.706-3.274 4.541-5.034 9.994-5.034 15.59s1.76 11.053 5.034 15.594c3.27 4.541 7.888 7.936 13.2 9.706zM128 142.934v352c0 43.594 35.34 78.931 78.933 78.931h516.267c43.594 0 78.934-35.338 78.934-78.931v-352c0-43.594-35.341-78.934-78.934-78.934h-516.267c-43.594 0-78.933 35.341-78.933 78.934zM206.933 509.866c-8.248 0-14.933-6.685-14.933-14.931v-61.869h546.134v61.869c0 8.246-6.688 14.931-14.934 14.931h-516.267zM738.134 369.066h-546.134v-226.131c0-8.246 6.686-14.934 14.933-14.934h516.267c8.246 0 14.934 6.688 14.934 14.934v226.131z" />
<glyph unicode="&#xe91f;" glyph-name="remove-square-1" d="M675.414 611.462c12.499-12.496 12.499-32.758 0-45.254l-118.179-118.179 118.179-118.182c12.499-12.496 12.499-32.758 0-45.254-12.496-12.496-32.758-12.496-45.254 0l-118.179 118.179-118.182-118.179c-12.496-12.496-32.758-12.496-45.254 0s-12.496 32.758 0 45.254l118.179 118.182-118.179 118.179c-12.496 12.496-12.496 32.758 0 45.254 12.496 12.499 32.758 12.499 45.254 0l118.182-118.179 118.179 118.179c12.496 12.499 32.758 12.499 45.254 0zM127.957 753.111c0 43.595 35.341 78.936 78.936 78.936h610.169c43.597 0 78.938-35.341 78.938-78.936v-610.17c0-43.597-35.341-78.938-78.938-78.938h-610.169c-43.595 0-78.936 35.341-78.936 78.938v610.17zM206.893 768.047c-8.249 0-14.936-6.687-14.936-14.936v-610.17c0-8.25 6.687-14.938 14.936-14.938h610.169c8.25 0 14.938 6.688 14.938 14.938v610.17c0 8.249-6.688 14.936-14.938 14.936h-610.169z" />
<glyph unicode="&#xe920;" glyph-name="alarm-bell" d="M432.758 136.435c16.957 4.979 34.739-4.733 39.718-21.69 2.509-8.554 7.725-16.064 14.861-21.408s15.811-8.23 24.726-8.23c8.915 0 17.59 2.886 24.726 8.23 7.139 5.344 12.352 12.854 14.864 21.408 4.979 16.957 22.758 26.669 39.718 21.69 16.957-4.976 26.669-22.758 21.69-39.718-6.406-21.821-19.709-40.982-37.914-54.611-18.208-13.632-40.339-20.998-63.085-20.998-22.742 0-44.874 7.366-63.082 20.998-18.208 13.629-31.51 32.79-37.917 54.611-4.976 16.96 4.733 34.742 21.693 39.718zM543.978 842.899c0 17.673-14.326 32-32 32-17.67 0-32-14.327-32-32v-48.719c-66.538-7.254-129.002-36.967-176.777-84.744-55.374-55.374-86.483-130.479-86.483-208.789 0-108.682-12.873-177.962-25.019-219.12-6.070-20.57-11.959-34.118-15.975-42.077-2.010-3.981-3.556-6.573-4.432-7.958-0.409-0.643-0.673-1.027-0.77-1.168-7.241-9.594-8.504-22.454-3.226-33.29 5.36-11.005 16.528-17.987 28.768-17.987h631.854c13.581 0 25.683 8.573 30.189 21.382 4.266 12.131 0.842 25.562-8.525 34.17-0.387 0.454-1.382 1.699-2.826 3.987-3.251 5.158-8.768 15.606-14.666 34.189-11.85 37.341-24.826 106.227-24.826 227.872 0 78.31-31.11 153.415-86.486 208.789-47.779 47.782-110.253 77.496-176.8 84.747v48.716zM511.594 731.919c0.128-0.002 0.256-0.002 0.384-0.002 0.131 0 0.259 0.001 0.39 0.002 61.2-0.1 119.872-24.455 163.155-67.738 43.373-43.372 67.741-102.197 67.741-163.535 0-125.69 13.347-201.606 27.824-247.229 1.155-3.638 2.32-7.094 3.488-10.371h-528.079c2.181 6.157 4.391 12.931 6.585 20.365 14.181 48.054 27.636 123.578 27.636 237.235 0 61.338 24.366 120.163 67.737 163.535 43.28 43.279 101.946 67.633 163.139 67.738z" />
<glyph unicode="&#xe921;" glyph-name="help-wheel" d="M286.735 809.101c1.208 0.866 2.464 1.638 3.756 2.316 66.185 40.338 142.719 62.185 221.509 62.185 78.781 0 155.309-21.843 221.488-62.174 1.306-0.684 2.576-1.464 3.795-2.34 27.21-16.974 52.618-37.1 75.661-60.141 22.941-22.941 42.992-48.232 59.92-75.307 1.072-1.452 2.010-2.973 2.803-4.548 40.176-66.090 61.933-142.468 61.933-221.092 0-78.614-21.754-154.986-61.92-221.072-0.803-1.587-1.747-3.123-2.829-4.586-16.925-27.069-36.973-52.352-59.907-75.286-22.934-22.931-48.214-42.976-75.277-59.901-1.469-1.088-3.008-2.035-4.602-2.838-66.083-40.166-142.454-61.917-221.066-61.917-78.624 0-155.005 21.757-221.095 61.933-1.573 0.797-3.094 1.731-4.545 2.803-27.074 16.928-52.365 36.979-75.306 59.92s-42.991 48.23-59.918 75.302c-1.073 1.453-2.008 2.973-2.804 4.547-40.178 66.090-61.933 142.47-61.933 221.094 0 78.637 21.761 155.024 61.948 221.121 0.788 1.554 1.711 3.057 2.769 4.492 16.932 27.084 36.989 52.385 59.938 75.333 23.047 23.047 48.465 43.178 75.681 60.155zM301.294 741.871c-15.909-11.407-30.964-24.158-44.986-38.18-14.028-14.028-26.784-29.090-38.194-45.006l129.467-129.466c8.781 17.773 20.464 34.17 34.746 48.451s30.678 25.965 48.451 34.746l-129.484 129.455zM184.657 601.632c-22.351-47.626-34.259-100.013-34.259-153.632 0-53.616 11.908-106.006 34.26-153.632l144.199 144.198c-0.16 3.133-0.243 6.278-0.243 9.43 0 3.155 0.083 6.301 0.243 9.437l-144.2 144.198zM218.116 237.315c11.41-15.917 24.165-30.976 38.192-45.005 14.028-14.026 29.091-26.784 45.008-38.195l129.484 129.456c-17.782 8.781-34.186 20.467-48.474 34.755-14.282 14.282-25.965 30.678-34.746 48.454l-129.465-129.466zM358.371 120.659c47.626-22.352 100.013-34.259 153.629-34.259s106.006 11.91 153.632 34.262l-144.195 144.195c-3.136-0.163-6.282-0.243-9.437-0.243-3.142 0-6.278 0.080-9.402 0.24l-144.227-144.195zM722.685 154.118c15.914 11.411 30.976 24.166 45.005 38.192 14.026 14.029 26.781 29.088 38.192 45.005l-129.472 129.443c-8.781-17.766-20.461-34.157-34.736-48.432-14.285-14.282-30.678-25.965-48.451-34.746l129.462-129.462zM839.338 294.365c22.352 47.629 34.262 100.019 34.262 153.635s-11.91 106.006-34.259 153.632l-144.198-144.198c0.16-3.136 0.243-6.282 0.243-9.437 0-3.165-0.083-6.32-0.246-9.466l144.198-144.166zM805.885 658.684c-11.411 15.917-24.17 30.979-38.195 45.008-14.022 14.021-29.078 26.772-44.986 38.179l-129.482-129.454c17.773-8.781 34.166-20.464 48.451-34.746 14.282-14.282 25.965-30.678 34.746-48.451l129.466 129.465zM665.654 775.331c-47.632 22.358-100.029 34.27-153.654 34.27s-106.022-11.912-153.654-34.269l144.224-144.193c3.133 0.163 6.278 0.243 9.43 0.243s6.298-0.080 9.43-0.243l144.224 144.192zM530.534 565.936c-1.146 0.099-2.285 0.262-3.414 0.486-4.989 0.637-10.038 0.96-15.12 0.96s-10.131-0.323-15.12-0.96c-1.13-0.224-2.269-0.387-3.414-0.486-24.797-3.898-47.91-15.549-65.885-33.52-17.955-17.955-29.6-41.040-33.507-65.811-0.102-1.194-0.272-2.381-0.506-3.558-0.63-4.966-0.954-9.99-0.954-15.050 0-5.056 0.323-10.080 0.95-15.043 0.237-1.178 0.406-2.368 0.509-3.565 3.907-24.768 15.555-47.853 33.507-65.808 18.106-18.106 41.43-29.795 66.435-33.606 0.774-0.080 1.549-0.192 2.317-0.33 5.168-0.682 10.4-1.030 15.667-1.030 5.050 0 10.067 0.32 15.024 0.947 1.194 0.24 2.4 0.413 3.61 0.515 24.758 3.91 47.834 15.555 65.782 33.504 17.968 17.965 29.616 41.069 33.517 65.856 0.102 1.142 0.262 2.282 0.486 3.408 0.64 4.998 0.966 10.061 0.966 15.152 0 5.059-0.323 10.086-0.954 15.050-0.234 1.178-0.403 2.365-0.506 3.555-3.907 24.771-15.552 47.859-33.51 65.814-17.971 17.971-41.085 29.622-65.882 33.52z" />
<glyph unicode="&#xe922;" glyph-name="calendar-3" d="M341.328 426.666c0-23.562-19.101-42.666-42.667-42.666-23.564 0-42.667 19.104-42.667 42.666 0 23.565 19.102 42.669 42.667 42.669s42.667-19.104 42.667-42.669zM511.994 384c23.565 0 42.669 19.104 42.669 42.666 0 23.565-19.104 42.669-42.669 42.669-23.562 0-42.666-19.104-42.666-42.669 0-23.562 19.104-42.666 42.666-42.666zM767.994 426.666c0-23.562-19.101-42.666-42.666-42.666s-42.666 19.104-42.666 42.666c0 23.565 19.101 42.669 42.666 42.669s42.666-19.104 42.666-42.669zM298.661 234.666c23.566 0 42.667 19.104 42.667 42.669 0 23.562-19.101 42.666-42.667 42.666-23.564 0-42.667-19.104-42.667-42.666 0-23.565 19.102-42.669 42.667-42.669zM554.662 277.334c0-23.565-19.104-42.669-42.669-42.669-23.562 0-42.666 19.104-42.666 42.669 0 23.562 19.104 42.666 42.666 42.666 23.565 0 42.669-19.104 42.669-42.666zM725.328 234.666c23.565 0 42.666 19.104 42.666 42.669 0 23.562-19.101 42.666-42.666 42.666s-42.666-19.104-42.666-42.666c0-23.565 19.101-42.669 42.666-42.669zM373.328 800v-10.667h277.334v10.667c0 17.673 14.326 32 32 32s32-14.327 32-32v-10.667h195.197c15.907 0 28.803-12.895 28.803-28.801v-625.064c0-15.907-12.896-28.803-28.803-28.803h-795.73c-15.906 0-28.801 12.896-28.801 28.803v625.064c0 15.906 12.895 28.801 28.801 28.801h195.199v10.667c0 17.673 14.326 32 32 32s32-14.327 32-32zM149.328 725.333v-127.999h725.334v127.999h-160v-2.138c0-17.673-14.326-32-32-32s-32 14.327-32 32v2.138h-277.334v-2.138c0-17.673-14.326-32-32-32s-32 14.327-32 32v2.138h-160zM149.328 533.334v-362.669h725.334v362.669h-725.334z" />
<glyph unicode="&#xe923;" glyph-name="bin" d="M412.8 547.2c-19.2 0-32-12.8-32-32v-265.6c0-19.2 12.8-32 32-32s32 12.8 32 32v265.6c0 19.2-12.8 32-32 32zM611.2 547.2c-19.2 0-32-12.8-32-32v-265.6c0-19.2 12.8-32 32-32s32 12.8 32 32v265.6c0 19.2-12.8 32-32 32zM908.8 745.6h-198.4v32c0 54.4-44.8 99.2-99.2 99.2h-198.4c-25.6 0-51.2-9.6-70.4-28.8s-28.8-44.8-28.8-70.4v-32h-198.4c-19.2 0-32-12.8-32-32s12.8-32 32-32h67.2v-563.2c0-54.4 44.8-99.2 99.2-99.2h460.8c54.4 0 99.2 44.8 99.2 99.2v563.2h67.2c19.2 0 32 12.8 32 32s-12.8 32-32 32zM377.6 777.6c0 9.6 6.4 19.2 12.8 25.6s12.8 9.6 22.4 9.6h195.2c19.2 0 35.2-16 35.2-35.2v-32h-265.6v32zM780.8 118.4c0-19.2-16-35.2-35.2-35.2h-464c-19.2 0-35.2 16-35.2 35.2v563.2h534.4v-563.2z" />
<glyph unicode="&#xe924;" glyph-name="password-type" d="M695.36 401.827c-17.674 0-32-14.326-32-32s14.326-32 32-32h104.96c17.674 0 32 14.326 32 32s-14.326 32-32 32h-104.96zM376.944 522.656c12.451-12.538 12.381-32.8-0.16-45.254l-42.733-42.435 42.733-42.435c12.541-12.454 12.611-32.717 0.16-45.254-12.454-12.541-32.714-12.611-45.254-0.16l-43.052 42.752-43.052-42.752c-12.54-12.451-32.802-12.381-45.255 0.16-12.453 12.538-12.382 32.8 0.158 45.254l42.734 42.435-42.734 42.435c-12.54 12.454-12.611 32.717-0.158 45.254 12.453 12.541 32.714 12.611 45.255 0.16l43.052-42.752 43.052 42.752c12.541 12.451 32.8 12.381 45.254-0.16zM613.107 522.656c12.451-12.538 12.381-32.8-0.16-45.254l-42.733-42.435 42.733-42.435c12.541-12.454 12.611-32.717 0.16-45.254-12.454-12.541-32.717-12.611-45.258-0.16l-43.050 42.752-43.053-42.752c-12.541-12.451-32.8-12.381-45.254 0.16-12.454 12.538-12.381 32.8 0.157 45.254l42.736 42.435-42.736 42.435c-12.538 12.454-12.611 32.717-0.157 45.254 12.454 12.541 32.714 12.611 45.254 0.16l43.053-42.752 43.050 42.752c12.541 12.451 32.803 12.381 45.258-0.16zM170.558 662.398c-46.446 0-84.48-37.448-84.48-84.114v-260.573c0-46.666 38.034-84.112 84.48-84.112h682.239c46.448 0 84.48 37.446 84.48 84.112v260.573c0 46.666-38.032 84.114-84.48 84.114h-682.239zM150.078 578.285c0 10.896 8.958 20.115 20.48 20.115h682.239c11.523 0 20.48-9.219 20.48-20.115v-260.573c0-10.896-8.957-20.112-20.48-20.112h-682.239c-11.522 0-20.48 9.216-20.48 20.112v260.573z" />
<glyph unicode="&#xe925;" glyph-name="touch-password-lock" d="M230.401 439.36c8.487 0 16.626 3.37 22.628 9.373 6.001 6 9.372 14.141 9.372 22.627s-3.372 16.627-9.372 22.627c-6.001 6-14.14 9.373-22.628 9.373h-23.36c-1.973-0.016-3.929 0.371-5.745 1.142s-3.455 1.907-4.815 3.338c-2.83 2.79-4.44 6.586-4.48 10.56v234.559c0.082 3.963 1.692 7.741 4.496 10.544s6.581 4.414 10.544 4.496h328.319c8.486 0 16.627 3.372 22.627 9.372 6.003 6.001 9.373 14.14 9.373 22.628s-3.37 16.626-9.373 22.628c-6 6.001-14.141 9.372-22.627 9.372h-328.319c-10.392 0.042-20.689-1.973-30.297-5.93s-18.339-9.778-25.687-17.126c-7.348-7.348-13.169-16.078-17.126-25.687s-5.972-19.906-5.93-30.297v-234.559c0.084-20.938 8.439-40.992 23.244-55.798 14.804-14.803 34.86-23.158 55.796-23.242h23.36zM512 308.48h-20.48v200c-0.051 11.053-2.317 21.987-6.656 32.154-4.342 10.166-10.675 19.363-18.624 27.046-16.131 15.117-37.411 23.53-59.52 23.53s-43.389-8.413-59.52-23.53c-8.298-7.52-14.986-16.64-19.661-26.816s-7.238-21.19-7.539-32.384v-226.56l-11.839 13.44c-7.695 8.48-16.924 15.427-27.2 20.48-10.043 4.778-20.902 7.6-32 8.32-10.833 0.627-21.688-0.784-32-4.16-10.705-3.731-20.592-9.491-29.12-16.96-8.591-7.546-15.652-16.672-20.8-26.88-5.014-9.974-7.953-20.861-8.64-32-0.534-11.312 1.17-22.621 5.014-33.274s9.752-20.442 17.386-28.806l96-106.88c2.992-3.315 6.644-5.968 10.723-7.786 4.078-1.821 8.492-2.765 12.957-2.774 7.931 0.019 15.571 2.986 21.439 8.32 6.269 5.693 10.022 13.638 10.442 22.096s-2.528 16.736-8.202 23.024l-97.599 105.92c-1.969 2.128-3.492 4.63-4.48 7.36-0.487 2.643-0.487 5.354 0 8 0.076 2.976 0.728 5.91 1.92 8.64 0.785 2.938 2.205 5.67 4.16 8 2.245 1.978 4.853 3.498 7.68 4.48 2.968 0.467 5.992 0.467 8.96 0 3.096-0.211 6.129-0.97 8.96-2.24 2.722-1.549 5.202-3.491 7.36-5.76l67.839-74.88c4.381-4.55 10.010-7.699 16.179-9.056s12.602-0.858 18.486 1.437c5.885 2.291 10.96 6.275 14.586 11.446s5.638 11.299 5.789 17.613v309.44c0.074 5.062 2.144 9.894 5.76 13.44 4.067 3.709 9.376 5.766 14.88 5.766 5.507 0 10.813-2.058 14.88-5.766 1.894-1.693 3.414-3.763 4.461-6.080 1.046-2.314 1.597-4.819 1.619-7.36v-232c0-8.486 3.373-16.627 9.373-22.627 6.003-6.003 14.141-9.373 22.627-9.373h54.4c33.373 0.237 65.478-12.765 89.28-36.16 11.629-11.187 20.88-24.605 27.203-39.453 6.323-14.845 9.587-30.813 9.597-46.947v-25.92c0-8.486 3.373-16.627 9.373-22.627 6.003-6.003 14.141-9.373 22.627-9.373s16.627 3.37 22.627 9.373c6.003 6 9.373 14.141 9.373 22.627v25.92c-0.163 24.63-5.194 48.989-14.806 71.67-9.61 22.682-23.61 43.238-41.194 60.49-35.773 35.101-83.962 54.653-134.080 54.4zM864 691.199h-15.040v15.040c0.045 16.524-3.184 32.892-9.501 48.161s-15.594 29.135-27.299 40.799c-23.866 23.071-55.763 35.967-88.96 35.967-33.194 0-65.091-12.896-88.96-35.967-11.702-11.664-20.982-25.53-27.299-40.799-6.314-15.269-9.546-31.637-9.501-48.161v-15.040h-15.040c-8.486 0-16.627-3.372-22.627-9.372s-9.373-14.14-9.373-22.628v-234.559c0-8.486 3.373-16.627 9.373-22.627 6-6.003 14.141-9.373 22.627-9.373h281.6c8.486 0 16.627 3.37 22.627 9.373 6.003 6 9.373 14.141 9.373 22.627v234.559c0 8.487-3.37 16.626-9.373 22.628-6 6.001-14.141 9.372-22.627 9.372zM661.44 706.239c-0.019 8.076 1.552 16.076 4.627 23.544s7.594 14.256 13.293 19.976c11.869 11.16 27.549 17.373 43.84 17.373s31.971-6.213 43.84-17.373c5.702-5.72 10.218-12.508 13.293-19.976s4.646-15.468 4.627-23.544v-15.040h-123.52v15.040zM832 456.64h-217.6v170.56h217.6v-170.56zM746.56 576c-8.115 5.21-17.76 7.507-27.35 6.518-9.594-0.989-18.566-5.203-25.45-11.958-7.603-7.786-11.853-18.24-11.84-29.12-0.080-8.323 2.374-16.47 7.040-23.36 4.464-6.829 10.954-12.090 18.56-15.040 5.037-2.221 10.499-3.312 16-3.2 2.659-0.317 5.344-0.317 8 0 8.163 1.539 15.651 5.562 21.44 11.52 5.734 5.779 9.632 13.13 11.2 21.12 1.699 8.042 0.918 16.41-2.24 24-3.066 7.888-8.413 14.685-15.36 19.52z" />
<glyph unicode="&#xe926;" glyph-name="share" d="M698.88 406.080c-41.571 0-81.51-16.182-111.36-45.12-4.090-4.483-7.936-9.181-11.52-14.080l-177.6 87.040c3.523 12.618 5.459 25.626 5.76 38.72-0.202 8.269-1.059 16.509-2.56 24.64l165.44 64c5.914-9.126 12.781-17.6 20.48-25.28 29.907-29.315 70.118-45.738 112-45.738s82.093 16.422 112 45.738c14.698 14.285 26.384 31.376 34.362 50.256s12.090 39.168 12.090 59.665c0 20.497-4.112 40.786-12.090 59.666s-19.664 35.969-34.362 50.254c-29.907 29.316-70.118 45.737-112 45.737s-82.093-16.421-112-45.737c-14.621-14.374-26.253-31.503-34.214-50.397-7.965-18.894-12.106-39.179-12.186-59.683 0.202-8.267 1.059-16.507 2.56-24.641l-165.44-64c-5.914 9.126-12.781 17.6-20.48 25.28-29.907 29.318-70.12 45.738-112 45.738s-82.092-16.419-112-45.738c-14.699-14.285-26.383-31.373-34.362-50.253s-12.090-39.168-12.090-59.667c0-20.496 4.111-40.784 12.090-59.664s19.663-35.971 34.362-50.256c29.908-29.315 70.12-45.738 112-45.738s82.093 16.422 112 45.738c4.16 4.48 7.68 9.6 11.52 14.080l176.96-86.72c-3.498-12.621-5.434-25.626-5.76-38.72 0.080-20.502 4.221-40.787 12.186-59.683 7.962-18.893 19.594-36.022 34.214-50.397 29.907-29.315 70.118-45.738 112-45.738s82.093 16.422 112 45.738c14.698 14.285 26.384 31.376 34.362 50.256s12.090 39.168 12.090 59.664c0 20.499-4.112 40.787-12.090 59.667s-19.664 35.968-34.362 50.253c-30.006 29.091-70.208 45.286-112 45.12zM632.32 709.121c17.885 17.208 41.741 26.821 66.56 26.821s48.675-9.612 66.56-26.821c8.554-8.32 15.354-18.27 19.997-29.263s7.034-22.804 7.034-34.737c0-11.934-2.39-23.745-7.034-34.737s-11.443-20.944-19.997-29.264c-18.24-16.506-41.962-25.645-66.56-25.645s-48.32 9.139-66.56 25.645c-8.554 8.32-15.354 18.272-19.997 29.264s-7.034 22.803-7.034 34.737c0 11.933 2.39 23.745 7.034 34.737s11.443 20.943 19.997 29.263v0zM179.84 408.32c-8.585 8.307-15.415 18.25-20.087 29.245-4.672 10.992-7.091 22.813-7.113 34.755-0.052 11.958 2.333 23.798 7.010 34.803 4.677 11.002 11.546 20.938 20.19 29.197 17.885 17.21 41.74 26.822 66.56 26.822s48.675-9.613 66.56-26.822c8.643-8.259 15.514-18.195 20.189-29.197 4.678-11.005 7.062-22.845 7.011-34.803-0.022-11.942-2.442-23.763-7.114-34.755-4.672-10.995-11.501-20.938-20.086-29.245-18.24-16.506-41.961-25.645-66.56-25.645s-48.32 9.139-66.56 25.645v0zM765.44 186.88c-18.173-16.64-41.92-25.869-66.56-25.869s-48.387 9.229-66.56 25.869c-8.554 8.32-15.354 18.272-19.997 29.264s-7.034 22.803-7.034 34.736c0 11.933 2.39 23.744 7.034 34.739 4.643 10.992 11.443 20.941 19.997 29.261 17.885 17.21 41.741 26.822 66.56 26.822s48.675-9.613 66.56-26.822c8.554-8.32 15.354-18.269 19.997-29.261 4.643-10.995 7.034-22.806 7.034-34.739s-2.39-23.744-7.034-34.736c-4.643-10.992-11.443-20.944-19.997-29.264z" />
<glyph unicode="&#xe927;" glyph-name="alert-triangle" d="M496.507 592.651c17.135 0 31.030-13.892 31.030-31.030v-204.471c0-17.135-13.895-31.030-31.030-31.030-17.138 0-31.030 13.895-31.030 31.030v204.471c0 17.138 13.892 31.030 31.030 31.030zM188.955 168.783c-6.873-13.753 3.129-29.935 18.505-29.935h578.025c15.376 0 25.38 16.182 18.506 29.935l-289.013 578.368c-7.621 15.253-29.389 15.253-37.010 0l-289.014-578.368zM570.492 774.892l289.013-578.368c27.493-55.017-12.515-119.737-74.020-119.737h-578.025c-61.505 0-101.513 64.72-74.020 119.737l289.013 578.368c30.487 61.012 117.552 61.012 148.039 0zM539.775 254.908c0-23.915-19.388-43.303-43.303-43.303s-43.303 19.388-43.303 43.303c0 23.915 19.388 43.303 43.303 43.303s43.303-19.388 43.303-43.303z" />
<glyph unicode="&#xe928;" glyph-name="information-circle" d="M585.6 326.4h-25.6c-9.6 0-19.2 6.4-19.2 19.2v131.2c0 32-25.6 57.6-57.6 57.6h-25.6c-19.2 0-32-12.8-32-32s12.8-32 32-32h22.4v-128c0-44.8 35.2-83.2 83.2-83.2h25.6c19.2 0 28.8 16 28.8 35.2s-12.8 32-32 32zM499.2 576c22.4 0 44.8 19.2 44.8 44.8s-19.2 44.8-44.8 44.8-44.8-19.2-44.8-44.8 19.2-44.8 44.8-44.8zM512 876.8c-236.8 0-428.8-195.2-428.8-428.8s192-425.6 428.8-425.6c233.6 0 428.8 188.8 428.8 425.6s-192 428.8-428.8 428.8zM512 83.2c-201.6 0-364.8 163.2-364.8 364.8s163.2 364.8 364.8 364.8c198.4 0 364.8-163.2 364.8-364.8s-163.2-364.8-364.8-364.8z" />
<glyph unicode="&#xe929;" glyph-name="question-circle" d="M512 694.4c-35.2 0-70.4-16-96-41.6-28.8-25.6-41.6-60.8-41.6-96 0-19.2 12.8-32 32-32s32 12.8 32 32c0 19.2 9.6 38.4 22.4 51.2 12.8 16 32 22.4 51.2 22.4s38.4-9.6 51.2-22.4c16-12.8 22.4-32 22.4-51.2 0-32-19.2-60.8-48-70.4-35.2-12.8-57.6-44.8-57.6-80v-35.2c0-19.2 12.8-32 32-32 16 0 32 12.8 32 32v35.2c0 9.6 3.2 16 12.8 19.2 54.4 22.4 92.8 73.6 92.8 131.2 0 35.2-16 70.4-41.6 96-25.6 28.8-60.8 41.6-96 41.6zM512 294.4c-25.6 0-44.8-19.2-44.8-44.8s19.2-44.8 44.8-44.8 44.8 19.2 44.8 44.8-19.2 44.8-44.8 44.8zM512 876.8c-236.8 0-428.8-192-428.8-428.8 0-233.6 192-425.6 428.8-425.6 233.6 0 425.6 192 428.8 425.6 0 236.8-192 428.8-428.8 428.8zM512 83.2c-201.6 0-364.8 163.2-364.8 364.8s163.2 364.8 364.8 364.8c198.4 0 364.8-163.2 364.8-364.8s-163.2-364.8-364.8-364.8z" />
<glyph unicode="&#xe92a;" glyph-name="flag-triangle" d="M302.004 826.454c8.755 5.959 19.891 7.2 29.744 3.316l367.315-144.836c0.454-0.18 0.906-0.37 1.354-0.57 13.91-6.237 25.68-16.394 33.917-29.193 8.237-12.796 12.602-27.698 12.602-42.904 0-15.203-4.365-30.106-12.602-42.902-8.237-12.8-20.006-22.957-33.917-29.194-0.448-0.198-0.899-0.39-1.354-0.57l-347.053-136.848v-306.752c0-17.674-14.326-32-32-32s-32.001 14.326-32.001 32v327.786c-0.012 0.493-0.012 0.986 0 1.475v374.739c0 10.59 5.24 20.495 13.995 26.454zM352.010 471.549l322.694 127.242c2.326 1.149 4.349 2.934 5.811 5.213 1.568 2.432 2.419 5.302 2.419 8.262s-0.851 5.834-2.419 8.266c-1.462 2.275-3.485 4.061-5.811 5.21l-322.694 127.243v-281.435z" />
<glyph unicode="&#xe92b;" glyph-name="trends-hot-flame" d="M686.723 402.237c-8.49 0-16.627-3.373-22.63-9.373-6-6.003-9.37-14.141-9.37-22.627 1.21-31.526-10.141-62.24-31.562-85.402s-51.158-36.87-82.678-38.118c-4.342 0.003-8.637-0.874-12.627-2.579-3.99-1.709-7.594-4.211-10.586-7.354-2.995-3.142-5.318-6.861-6.829-10.931-1.51-4.067-2.176-8.403-1.958-12.736 0.41-8.208 3.962-15.942 9.92-21.6 5.955-5.661 13.862-8.813 22.080-8.8 24.163 0.723 47.936 6.278 69.92 16.336s41.731 24.413 58.080 42.224c32.998 35.664 50.493 82.966 48.64 131.52-0.618 7.766-4.045 15.040-9.642 20.461s-12.976 8.611-20.758 8.979zM459.523 871.036c-9.030 1.022-18.16-0.648-26.24-4.8-8.154-4.208-14.803-10.833-19.043-18.968-4.237-8.134-5.859-17.381-4.637-26.472 0.95-9.213 4.883-17.864 11.2-24.64 174.080-193.919 96-313.279 48.64-358.719-15.29 14.067-27.12 31.482-34.56 50.88-8.275 21.482-11.024 44.698-8 67.52 0.957 7.648-0.262 15.411-3.52 22.4-3.037 7.197-8.026 13.405-14.4 17.92-6.125 4.749-13.427 7.734-21.12 8.64-7.459 0.973-15.043 0.093-22.080-2.56-57.248-22.010-106.358-61.062-140.696-111.882s-52.246-110.954-51.306-172.278c0-156.48 160.002-293.76 345.922-293.76 237.76 0 346.24 192 346.24 372.16-1.92 218.24-198.080 448.959-406.4 474.559zM518.723 88.317c-150.080 0-281.921 107.2-281.921 230.080-0.661 43.405 10.671 86.15 32.747 123.526 22.076 37.379 54.041 67.939 92.374 88.314 0.787-21.914 5.222-43.546 13.12-64 11.712-31.798 31.312-60.096 56.96-82.24 10.848-9.062 24.582-13.946 38.72-13.76 14.131 0.355 27.654 5.811 38.080 15.36 44.16 40.64 167.040 185.28-4.8 409.279 156.48-49.28 296-231.039 296-398.399 0-153.28-86.4-308.16-281.28-308.16z" />
<glyph unicode="&#xe92c;" glyph-name="rating-star" d="M231.137 23.331c-8.96 0-18.347 2.134-26.453 5.974-10.24 4.694-18.347 11.946-24.32 20.906-5.973 9.389-9.387 20.054-9.387 31.149v708.265c0 22.613 9.813 44.8 26.453 60.587 16.64 15.36 38.4 23.893 61.44 23.893h505.601c23.040 0 44.8-8.533 61.44-23.893 17.066-15.787 26.451-37.973 26.451-60.587v-707.84c0-11.094-3.411-22.186-9.386-31.574-5.974-8.96-14.080-16.211-23.894-20.906-9.811-4.694-20.48-6.826-31.146-5.974-10.666 0.854-20.906 4.269-29.866 10.24l-231.254 157.014c-8.531 5.546-21.331 5.974-30.291 0l-231.255-157.014c-8.96-5.971-19.2-9.386-29.867-10.24-1.707 0-2.987 0-4.693 0h0.427zM259.297 810.105c-6.827 0-13.227-2.56-17.92-6.827-4.267-3.84-6.4-8.533-6.4-13.653v-700.585l226.134 154.88c30.294 20.48 72.106 20.48 101.971 0l226.134-153.6v699.305c0 5.12-2.134 9.813-6.4 13.653-4.694 4.267-11.094 6.827-17.92 6.827h-505.599zM607.875 333.523c-7.254 0-14.080 1.706-20.054 4.691l-75.946 37.549-76.374-37.549c-7.251-3.84-15.36-5.546-24.32-4.266-7.68 0.854-15.786 3.84-22.611 9.386-6.4 5.12-11.094 11.949-13.654 20.054s-2.986 16.64-0.854 24.746l22.189 81.069-60.16 59.731c-5.974 5.974-9.814 13.229-11.949 21.334-1.706 8.106-1.28 16.214 1.709 23.894 2.986 8.106 8.106 14.506 14.506 19.626s14.506 8.106 22.614 8.534l71.251 7.251 38.4 76.374c3.84 7.253 9.389 13.227 16.214 17.493 13.654 8.107 31.574 8.107 44.8 0 6.826-4.267 12.374-10.24 16.214-17.493l38.4-76.374 71.68-7.251c7.68-0.854 15.36-3.84 22.186-8.534 6.826-5.12 11.52-11.946 14.506-19.2 2.989-8.106 3.414-16.64 1.709-24.32-2.134-8.534-5.974-15.786-11.52-21.334l-60.16-59.731 22.186-81.069c2.134-8.531 2.134-17.066-0.426-24.746-2.56-8.106-7.254-14.934-14.080-20.48-5.974-5.12-14.080-8.534-22.189-9.386-1.706 0-3.411 0-4.691 0h0.426zM512.301 443.603c4.694 0 9.814-1.28 14.080-3.414l49.069-24.32-14.934 54.186c-2.986 11.094 0 23.040 8.106 31.149l42.24 41.811-45.226 4.269c-10.666 1.28-20.48 7.68-25.6 17.491l-27.734 55.469-27.731-55.469c-5.12-9.811-14.509-16.211-25.6-17.491l-45.229-4.269 42.24-41.811c8.109-8.109 11.52-20.054 8.534-31.149l-14.934-54.186 49.069 24.32c4.266 2.134 9.386 3.414 14.080 3.414h-0.429z" />
<glyph unicode="&#xe92d;" glyph-name="rating-star-circle" d="M483.309 666.452c-8.662-5.279-15.706-12.841-20.358-21.858-0.16-0.314-0.317-0.631-0.47-0.95l-40.304-84.93h-62.71c-10.822 0.122-21.443-2.963-30.518-8.877-9.17-5.971-16.34-14.557-20.587-24.643s-5.374-21.213-3.238-31.946c2.136-10.736 7.439-20.582 15.226-28.275 0.387-0.384 0.787-0.758 1.194-1.123l59.085-52.669-33.222-76.346c-4.461-10.64-5.466-22.41-2.87-33.648 2.592-11.238 8.653-21.379 17.322-28.986 8.672-7.606 19.514-12.298 30.995-13.408 11.382-1.101 22.826 1.373 32.733 7.075l86.413 48.602 86.416-48.602c9.907-5.702 21.35-8.176 32.733-7.075 11.482 1.11 22.323 5.802 30.992 13.408 8.672 7.606 14.733 17.747 17.325 28.986 2.595 11.238 1.594 23.011-2.867 33.648l-33.216 76.326 59.19 52.669c0.416 0.371 0.822 0.752 1.219 1.142 7.786 7.693 13.088 17.539 15.226 28.275 2.134 10.733 1.008 21.859-3.238 31.946s-11.418 18.672-20.589 24.643c-9.072 5.914-19.693 8.998-30.518 8.877h-62.707l-40.307 84.93c-0.15 0.319-0.307 0.636-0.47 0.95-4.65 9.016-11.693 16.579-20.358 21.858-8.662 5.279-18.611 8.072-28.758 8.072-10.144 0-20.093-2.793-28.758-8.072zM512.067 598.858l40.749-85.866c5.299-11.165 16.554-18.278 28.912-18.278h59.27l-57.488-51.152c-10.333-9.197-13.59-23.994-8.070-36.678l31.504-72.384-79.258 44.576c-9.741 5.478-21.635 5.478-31.376 0l-79.258-44.576 31.501 72.384c5.517 12.675 2.272 27.459-8.048 36.656l-57.402 51.174h59.306c12.358 0 23.61 7.114 28.909 18.278l40.749 85.866zM211.054 748.938c79.815 79.816 188.069 124.655 300.946 124.655 112.874 0 221.126-44.84 300.944-124.655 79.814-79.815 124.656-188.068 124.656-300.945s-44.842-221.13-124.656-300.944c-79.818-79.818-188.070-124.656-300.944-124.656-112.877 0-221.131 44.838-300.946 124.656-79.815 79.814-124.655 188.067-124.655 300.944s44.84 221.129 124.655 300.945zM512 809.594c-95.904 0-187.878-38.097-255.692-105.91-67.813-67.815-105.91-159.786-105.91-255.69 0-95.901 38.097-187.875 105.91-255.69s159.788-105.91 255.692-105.91c95.901 0 187.875 38.096 255.69 105.91 67.811 67.814 105.91 159.789 105.91 255.69 0 95.904-38.099 187.878-105.91 255.69-67.814 67.813-159.789 105.91-255.69 105.91z" />
<glyph unicode="&#xe92e;" glyph-name="gift-box" d="M277.334 832c-17.673 0-32-14.327-32-32 0-62.602 32.016-117.282 76.365-155.734h-114.766c-20.934 0-41.012-8.317-55.814-23.12s-23.119-34.88-23.119-55.814v-70.4c0-14.71 5.844-28.819 16.246-39.219 8.369-8.368 19.137-13.789 30.687-15.587v-297.194c0-20.934 8.316-41.011 23.119-55.814s34.88-23.12 55.814-23.12h516.265c20.934 0 41.014 8.317 55.814 23.12 14.803 14.803 23.12 34.88 23.12 55.814v297.194c11.552 1.798 22.32 7.216 30.688 15.587 10.403 10.4 16.246 24.509 16.246 39.219v70.4c0 20.934-8.317 41.011-23.12 55.814s-34.88 23.12-55.814 23.12h-114.762c44.346 38.452 76.362 93.132 76.362 155.734 0 17.673-14.326 32-32 32-60.109 0-120.134-24.164-165.248-62.633-31.421-26.796-56.851-61.683-69.418-101.762-12.566 40.080-37.994 74.966-69.418 101.762-45.114 38.47-105.139 62.633-165.248 62.633zM622.947 720.668c24.659 21.028 54.922 36.144 86.070 43.079-8.416-26.818-25.856-51.706-49.83-72.15-24.659-21.028-54.925-36.143-86.070-43.079 8.413 26.818 25.856 51.706 49.83 72.15zM364.813 691.598c-23.974 20.444-41.414 45.332-49.828 72.15 31.147-6.936 61.409-22.051 86.072-43.079 23.974-20.444 41.414-45.332 49.827-72.15-31.146 6.936-61.411 22.051-86.070 43.079zM206.933 580.266h202.667v-76.8h-217.6v61.866c0 3.962 1.573 7.76 4.374 10.56s6.599 4.374 10.56 4.374zM550.4 580.266v-76.8h-76.8v76.8h76.8zM614.4 503.466v76.8h202.666c3.962 0 7.76-1.574 10.56-4.374s4.374-6.598 4.374-10.56v-61.866h-217.6zM550.4 439.466v-311.466h-76.8v311.466h76.8zM409.6 439.466v-311.469h-155.734c-3.961 0-7.759 1.574-10.559 4.374s-4.374 6.598-4.374 10.56v296.534h170.668zM614.4 127.997v311.469h170.666v-296.534c0-3.962-1.574-7.76-4.374-10.56s-6.598-4.374-10.56-4.374h-155.731z" />
<glyph unicode="&#xe92f;" glyph-name="like-1" d="M864 535.037c-23.722 31.702-57.613 54.294-96 64l-18.88 4.16c-37.76 7.36-37.76 11.2-37.76 20.48v106.88c0.083 13.454-2.534 26.788-7.702 39.212s-12.778 23.682-22.378 33.108c-19.472 18.621-45.376 29.013-72.32 29.013s-52.848-10.392-72.32-29.013c-9.814-9.733-17.546-21.364-22.717-34.183s-7.677-26.557-7.363-40.377c0-12.8 4.8-128-59.84-195.52-30.39-30.579-70.899-49.014-113.92-51.84v38.72c0 8.486-3.373 16.627-9.373 22.627s-14.14 9.373-22.627 9.373h-140.8c-8.487 0-16.626-3.373-22.628-9.373s-9.372-14.141-9.372-22.627v-422.72c0-8.486 3.372-16.627 9.372-22.627s14.14-9.373 22.628-9.373h140.8c8.487 0 16.626 3.373 22.627 9.373s9.373 14.141 9.373 22.627v10.24c2.618-0.826 5.293-1.469 8-1.92l56.32-16.32c37.562-14.49 77.222-22.81 117.44-24.64h154.24c54.675 0 107.379 20.403 147.805 57.219 40.422 36.813 65.654 87.386 70.755 141.821l9.6 160c2.186 39.91-9.456 79.354-32.96 111.68zM268.8 128.957h-76.8v358.72h76.8v-358.72zM823.68 268.477c-3.962-38.304-21.994-73.776-50.605-99.549-28.611-25.776-65.766-40.016-104.275-39.971h-154.24c-33.814 2.096-67.082 9.549-98.56 22.080l-57.6 16.32c-8.378 2.56-16.934 4.486-25.6 5.76v243.84c59.514 3.594 115.542 29.27 157.12 72 82.88 85.44 80.32 216 79.040 241.6 0 5.043 0.992 10.036 2.922 14.695s4.758 8.892 8.326 12.458c3.565 3.566 7.798 6.395 12.458 8.324s9.651 2.923 14.694 2.923c5.043 0 10.035-0.993 14.694-2.923s8.893-4.758 12.458-8.324c3.568-3.566 6.394-7.799 8.326-12.458 1.93-4.659 2.922-9.652 2.922-14.695v-106.24c0-65.92 58.24-77.12 89.28-83.2l16-3.52c24.157-6.24 45.414-20.64 60.17-40.762 14.755-20.118 22.099-44.723 20.79-69.638l-8.32-158.72z" />
<glyph unicode="&#xe930;" glyph-name="tools-wench" d="M658.451 830.838c43.142 4.516 86.64-4.202 124.71-24.996 8.848-4.833 14.899-13.551 16.333-23.529 1.437-9.978-1.914-20.049-9.043-27.179l-95.398-95.427v-28.616h28.618l95.469 95.44c7.13 7.122 17.2 10.469 27.174 9.032s18.691-7.488 23.523-16.333c20.794-38.070 29.514-81.566 24.995-124.708-4.515-43.146-22.054-83.891-50.282-116.829-28.227-32.941-65.811-56.509-107.754-67.578-35.203-9.29-72.083-9.405-107.152-0.496l-313.11-313.232c-20.711-20.71-48.806-32.349-78.096-32.349s-57.38 11.635-78.092 32.346c-20.711 20.71-32.347 48.8-32.347 78.093 0 29.29 11.636 57.379 32.347 78.090l313.205 313.085c-8.909 35.069-8.794 71.946 0.496 107.152 11.069 41.943 34.637 79.525 67.574 107.754s73.686 45.765 116.829 50.282zM709.936 765.118c-14.669 2.92-29.776 3.643-44.819 2.068-30.227-3.164-58.771-15.45-81.846-35.225s-39.587-46.104-47.341-75.488c-7.754-29.385-6.384-60.431 3.93-89.017 4.208-11.67 1.296-24.72-7.478-33.491l-326.779-326.653c-8.709-8.707-13.602-20.522-13.602-32.835 0-12.317 4.892-24.128 13.602-32.838 8.709-8.707 20.521-13.6 32.837-13.6s24.128 4.893 32.837 13.6l326.683 326.81c8.771 8.774 21.821 11.69 33.491 7.478 28.586-10.314 59.635-11.683 89.018-3.93s55.712 24.266 75.488 47.341c19.776 23.075 32.061 51.622 35.226 81.846 1.574 15.046 0.851 30.154-2.067 44.822l-69.568-69.545c-6-6-14.138-9.37-22.624-9.37h-73.869c-17.674 0-32 14.326-32 32v73.868c0 8.485 3.37 16.623 9.37 22.624l69.514 69.535z" />
<glyph unicode="&#xe931;" glyph-name="app-window-1" d="M910.403 760.637c-16.72 15.186-38.538 23.525-61.12 23.36h-672.002c-22.508 0.069-44.258-8.13-61.12-23.040-8.374-7.624-15.062-16.914-19.636-27.274s-6.932-21.561-6.924-32.886v-512.001c0.117-11.318 2.597-22.486 7.281-32.79s11.468-19.517 19.919-27.050c16.83-14.963 38.601-23.168 61.12-23.040h675.518c21.469-0.045 42.202 7.814 58.24 22.080 8.118 7.181 14.624 15.994 19.091 25.866s6.797 20.579 6.832 31.414v515.521c-0.038 11.332-2.483 22.527-7.171 32.843-4.691 10.316-11.517 19.518-20.029 26.997v0zM867.523 713.277c1.811-1.484 3.29-3.335 4.336-5.431 1.050-2.095 1.642-4.388 1.744-6.729v-58.88h-354.24v77.76h329.92c6.698 0.083 13.194-2.31 18.24-6.72v0zM362.56 642.237v77.76h92.8v-77.76h-92.8zM160.962 713.277c5.104 4.31 11.56 6.689 18.24 6.72h119.36v-77.76h-144.96v58.56c0.229 2.495 1.008 4.908 2.28 7.066s3.007 4.007 5.080 5.414v0zM868.803 175.037c-4.288-3.622-9.75-5.558-15.363-5.44h-675.518c-6.258 0.221-12.249 2.595-16.96 6.72-2.088 1.392-3.835 3.235-5.11 5.398-1.274 2.16-2.044 4.582-2.25 7.082v389.44h720.002v-393.28c-0.054-1.898-0.512-3.763-1.338-5.475-0.829-1.709-2.010-3.222-3.462-4.445z" />
</font>
</defs>
</svg>
